Андроид / Android / App (Бобо Боерманс / Bobby Boermans) [2013, Нидерланды, триллер, DVDRip] Dub

Ответить на тему
 
Автор Сообщение

user ®

Стаж: 7 лет 7 месяцев

Сообщений: 20008

Пост Пост: #1 от 23-Дек-2013 02:50

[Цитировать]

Андроид
Android / App
-
-
-Страна: Нидерланды
Жанр: триллер
Год выпуска: 2013
Продолжительность: 01:15:24-
-
-Перевод: Профессиональный (дублированный)
Субтитры: нет
Режиссер: Бобо Боерманс / Bobby Boermans-
-
-В ролях: Ханна Хекстра, Роберт де Хуг, Исис Каболе Маттис ван де Санде Бакхуйзен, Марк ван Эувен, Лиза Сипс, Ерун Шпиценбергер, Алекс Хендрикс, Патрик Мартенс, Гиги Равелли-
-
-Описание: Симпатичная студентка Анна просыпается после вечеринки и обнаруживает на своем смартфоне загадочное приложение «Айрис»… Активируя приложение, Анна запускает головокружительную и трагическую череду событий в жизни своих друзей и знакомых. Кто за этим стоит? …-
-
-Качество видео: DVDRip
Формат видео: AVI
Видео: XviD, 720x304 (2.37:1), 25 fps, 1241 kbps avg, 0.23 bit/pixel
Аудио: MPEG Layer 3 (MP3), 48 kHz, 128.00 kbps (CBR), 2 ch--Семпл: http://multi-up.com/934646/-
-

MediaInfo

Общее
Полное имя                               : Android.2013.XviD.DVDRip.RusDUB.AMAPAHT.avi
Формат                                   : AVI
Формат/Информация                        : Audio Video Interleave
Размер файла                             : 744 Мбайт
Продолжительность                        : 1 ч. 15 м.
Общий поток                              : 1380 Кбит/сек
Название фильма                          : Android.2013.XviD.DVDRip.RusDUB.AMAPAHT
Режиссёр                                 : rip by AMAPAHT
Программа кодирования                    : VirtualDubMod 1.5.10.3 | www.virtualdub-fr.org || (build 2550/release)
Видео
Идентификатор                            : 0
Формат                                   : MPEG-4 Visual
Профиль формата                          : Advanced Simple@L5
Параметр BVOP формата                    : 2
Параметр QPel формата                    : Нет
Параметр GMC формата                     : Без точки перехода
Параметр матрицы формата                 : Выборочная
Идентификатор кодека                     : XVID
Идентификатор кодека/Подсказка           : XviD
Продолжительность                        : 1 ч. 15 м.
Битрейт                                  : 1242 Кбит/сек
Ширина                                   : 720 пикселей
Высота                                   : 304 пикселя
Соотношение сторон                       : 2,35:1
Частота кадров                           : 25,000 кадров/сек
Цветовое пространство                    : YUV
Субдискретизация насыщенности            : 4:2:0
Битовая глубина                          : 8 бит
Тип развёртки                            : Прогрессивная
Метод сжатия                             : С потерями
Бит/(Пиксели*Кадры)                      : 0.227
Размер потока                            : 670 Мбайт (90%)
Библиотека кодирования                   : XviD 73
Аудио
Идентификатор                            : 1
Формат                                   : MPEG Audio
Версия формата                           : Version 1
Профиль формата                          : Layer 3
Режим                                    : Joint stereo
Расширение режима                        : MS Stereo
Идентификатор кодека                     : 55
Идентификатор кодека/Подсказка           : MP3
Продолжительность                        : 1 ч. 15 м.
Вид битрейта                             : Постоянный
Битрейт                                  : 128 Кбит/сек
Каналы                                   : 2 канала
Частота                                  : 48,0 КГц
Метод сжатия                             : С потерями
Размер потока                            : 69,0 Мбайт (9%)
Выравнивание                             : Соединение по промежуткам
Продолжительность промежутка             : 40  мс. (1,00 видеокадр)
Время предзагрузки промежутка            : 504  мс.
Библиотека кодирования                   : LAME3.99.5ЄЄЄЄЄЄЄЄЄЄ

Скриншоты

Запасные

Скачать

Скачать торрент!

Как скачивать? · Что такое торрент? · Рейтинг и ограничения

Сайт не распространяет и не хранит электронные версии произведений, а лишь предоставляет доступ к создаваемому пользователями каталогу ссылок на торрент-файлы, которые содержат только списки хеш-сумм

[Профиль] [ЛС]
Показать сообщения:    
Ответить на тему

Текущее время: Сегодня 17:44

Часовой пояс: GMT + 4



Вы не можете начинать темы
Вы не можете отвечать на сообщения
Вы не можете редактировать свои сообщения
Вы не можете удалять свои сообщения
Вы не можете голосовать в опросах
Вы не можете прикреплять файлы к сообщениям
Вы не можете скачивать файлы