Синий каприз / Blue Caprice (Александр Мурс / Alexandre Moors) [2013, США, драма, криминал, WEB-DLRip] VO (datynet)

Ответить на тему
 
Автор Сообщение

user ®

Стаж: 7 лет 7 месяцев

Сообщений: 20008

Пост Пост: #1 от 23-Дек-2013 02:50

[Цитировать]

Синий капризBlue Caprice«Some killers are born. Others are driven to it»- Страна: США
Жанр: драма, криминал
Год выпуска: 2013
Продолжительность: 01:33:12-Перевод: Одноголосый закадровый [datynet]
Субтитры: нет
Режиссер: Александр Мурс / Alexandre Moors
В ролях: Джои Лорен Эдамс, Исайя Вашингтон, Тим Блейк Нельсон, Лео Фицпатрик, Текуан Ричмонд, Эл Сапьенза, Кассандра Фриман, Малик Хэммонд, Алексис Яконо, Тео ван Голен, Брюс Киркпатрик, Хэппи Андерсон-Описание: В 2002 эти реальные события, всколыхнувшие восточное побережье США, получили название «история снайперов кольцевой дороги». Примерный – на первый взгляд – семьянин Джон Мухаммед знакомится с одиноким мальчиком Ли Мальво и очень скоро становится ему отцом и учителем. Проповедуя идеологию тотальной ненависти, Джон превращает подростка в маленького боевика, и кажущееся благодетельство постепенно оборачивается трагедией. Несмотря на изначально известный финал, фильм умело выдерживает тревожную атмосферу невыносимого напряжения. Вдоль дороги медленно едет синий Chevrolet Caprice, звучит пронзительная музыка Арво Пярта, скоро раздастся выстрел. А потом ещё. И ещё…-


MPAA: R - Лицам до 17 лет обязательно присутствие взрослого-

Доп. Информация

Сценарий: R.F.I. Porto
Продюсер: Исен Роббинс / Isen Robbins, Уилл Роуботэм / Will Rowbotham, Айми Шуф / Aimee Schoof, Рон Саймонс / Ron Simons, Стефен Тедески / Stephen Tedeschi
Оператор: Брайан О’Кэрролл / Brian O'Carroll
Композитор: Сара Неуфелд / Sarah Neufeld, Колин Стетсон / Colin Stetson
Сборы в США: $92 336
Мировая премьера: 19 января 2013
-Качество: WEB-DLRip
Контейнер: AVI
Видео: XviD, 720x304 (2.35:1), 1865 kbps, 23,976 fps, 0,355 bpp
Аудио: MP3 / 2.0 / 44 kHz / 192 kbps /-

Media Info

General
Complete name : G:\Blue.Caprice.2013_WEB-DLRip.avi
Format : AVI
Format/Info : Audio Video Interleave
File size : 1.35 GiB
Duration : 1h 33mn
Overall bit rate : 2 067 Kbps
Writing application : VirtualDubMod 1.5.10.3 | www.virtualdub-fr.org || (build 2550/release)
Writing library : VirtualDub build 34753/release
Video
ID : 0
Format : MPEG-4 Visual
Format profile : Advanced Simple@L5
Format settings, BVOP : 1
Format settings, QPel : No
Format settings, GMC : No warppoints
Format settings, Matrix : Default (MPEG)
Codec ID : XVID
Codec ID/Hint : XviD
Duration : 1h 33mn
Bit rate : 1 865 Kbps
Width : 720 pixels
Height : 304 pixels
Display aspect ratio : 2.35:1
Frame rate : 23.976 fps
Color space : YUV
Chroma subsampling : 4:2:0
Bit depth : 8 bits
Scan type : Progressive
Compression mode : Lossy
Bits/(Pixel*Frame) : 0.355
Stream size : 1.21 GiB (90%)
Writing library : XviD 1.2.1 (UTC 2008-12-04)
Audio
ID : 1
Format : MPEG Audio
Format version : Version 1
Format profile : Layer 3
Codec ID : 55
Codec ID/Hint : MP3
Duration : 1h 33mn
Bit rate mode : Constant
Bit rate : 192 Kbps
Channel(s) : 2 channels
Sampling rate : 44.1 KHz
Compression mode : Lossy
Stream size : 128 MiB (9%)
Alignment : Split accross interleaves
Interleave, duration : 42 ms (1.00 video frame)
Interleave, preload duration : 500 ms

Скриншот с названием фильма

Скриншоты

Скачать

Скачать торрент!

Как скачивать? · Что такое торрент? · Рейтинг и ограничения

Сайт не распространяет и не хранит электронные версии произведений, а лишь предоставляет доступ к создаваемому пользователями каталогу ссылок на торрент-файлы, которые содержат только списки хеш-сумм

[Профиль] [ЛС]
Показать сообщения:    
Ответить на тему

Текущее время: Сегодня 19:25

Часовой пояс: GMT + 4



Вы не можете начинать темы
Вы не можете отвечать на сообщения
Вы не можете редактировать свои сообщения
Вы не можете удалять свои сообщения
Вы не можете голосовать в опросах
Вы не можете прикреплять файлы к сообщениям
Вы не можете скачивать файлы