Армия проклятых / Army of the Damned (Том ДеНуччи / Tom DeNucci) [2014, США, Ужасы, HDRip] VO

Ответить на тему
 
Автор Сообщение

user ®

Стаж: 7 лет 7 месяцев

Сообщений: 20008

Пост Пост: #1 от 23-Дек-2013 02:50

[Цитировать]

Армия проклятых / Army of the Damned
Страна: США
Жанр: Ужасы
Год выпуска: 2014
Продолжительность: 01:29:13
Перевод: Одноголосый закадровый (xixidok)
Cубтитры: нет
Режиссер: Том ДеНуччи / Tom DeNucci
В ролях: Тони Тодд, Майкл Берриман, Джеки Мур, Жасмин Сэнт-Клэр, Дэвид Чокачи, Джои Фатон, Мадлен Мерритт, Мария Канеллис, Салли Эрна, Ник Принсип
Описание: Фильм повествует о том, как съемочная группа хитового реалити-шоу следует за группой полицейских по ночному городу. Вместе с полицейскими они приезжают на вызов, придающий совершенно новое значение термину «семейное насилие». Пытаясь разобраться собственными силами, полицейские попадают в еще большую неприятность. С помощью отставного полицейского и мелкого преступника, служители закона делают все, что в их силах, чтобы не стать солдатами «армии проклятых».
Семпл смотреть на Ютубе_
Сэмпл: http://sendfile.su/913104
http://www.kinopoisk.ru/film/724558/

Качество видео: HDRip
Формат видео: AVI
Видео: 640x368 (1.74:1), 23.976 fps, XviD build 50 ~955 kbps avg, 0.17 bit/pixel
Аудио: 44.100 kHz, MPEG Layer 3, 2 ch, ~192.00 kbps avg

MediaInfo

General
Complete name : I:\Запас\Заклятие\Army.of.the.Damned.2014.Xixidok.avi
Format : AVI
Format/Info : Audio Video Interleave
File size : 738 MiB
Duration : 1h 29mn
Overall bit rate : 1 157 Kbps
Writing application : VirtualDubMod 1.5.10.3 (build 2550/release)
Writing library : VirtualDubMod build 2550/release
Video
ID : 0
Format : MPEG-4 Visual
Format profile : Advanced Simple@L5
Format settings, BVOP : 2
Format settings, QPel : No
Format settings, GMC : No warppoints
Format settings, Matrix : Default (H.263)
Codec ID : XVID
Codec ID/Hint : XviD
Duration : 1h 29mn
Bit rate : 955 Kbps
Width : 640 pixels
Height : 368 pixels
Display aspect ratio : 1.739
Frame rate : 23.976 fps
Color space : YUV
Chroma subsampling : 4:2:0
Bit depth : 8 bits
Scan type : Progressive
Compression mode : Lossy
Bits/(Pixel*Frame) : 0.169
Stream size : 610 MiB (83%)
Writing library : XviD 1.2.1 (UTC 2008-12-04)
Audio
ID : 1
Format : MPEG Audio
Format version : Version 1
Format profile : Layer 3
Codec ID : 55
Codec ID/Hint : MP3
Duration : 1h 29mn
Bit rate mode : Constant
Bit rate : 192 Kbps
Channel(s) : 2 channels
Sampling rate : 44.1 KHz
Compression mode : Lossy
Stream size : 123 MiB (17%)
Alignment : Split accross interleaves
Interleave, duration : 42 ms (1.00 video frame)
Interleave, preload duration : 500 ms

Скриншот c названием фильма

Скриншоты



Релиз от:
Скачать

Скачать торрент!

Как скачивать? · Что такое торрент? · Рейтинг и ограничения

Сайт не распространяет и не хранит электронные версии произведений, а лишь предоставляет доступ к создаваемому пользователями каталогу ссылок на торрент-файлы, которые содержат только списки хеш-сумм

[Профиль] [ЛС]
Показать сообщения:    
Ответить на тему

Текущее время: Сегодня 14:15

Часовой пояс: GMT + 4



Вы не можете начинать темы
Вы не можете отвечать на сообщения
Вы не можете редактировать свои сообщения
Вы не можете удалять свои сообщения
Вы не можете голосовать в опросах
Вы не можете прикреплять файлы к сообщениям
Вы не можете скачивать файлы