Спасти Санту / Saving Santa (Леон Джусен / Leon Joosen, Аарон Силман / Aaron Seelman) [2013, мультфильм, мюзикл, комедия, приключения, семейный, BDRip] Dub (R5)

Ответить на тему
 
Автор Сообщение

user ®

Стаж: 11 лет

Сообщений: 15145

Пост Пост: #1 от 22-Дек-2013 20:40

[Цитировать]

Спасти Санту / Saving Santa- Год выпуска: 2013
Выпущено: США, Австралия, Канада
Жанр: мультфильм, мюзикл, комедия, приключения, семейный
Продолжительность: 01:23:54
Перевод: Профессиональный (полное дублирование) R5
Субтитры: нет-Режиссер: Леон Джусен / Leon Joosen, Аарон Силман / Aaron Seelman
В ролях: Ньюэлл Александр, Ноэль Кларк, Джоан Коллинз, Тим Конуэй, Дэвид Кауджилл, Тим Карри, Холли Дорфф, Муси Дриер, Пэм Феррис, Мартин Фриман
О фильме: Эльф Бернард — очень мил, умен, но слегка не серьезен. Ему предстоит потрясающее, но очень опасное приключение. Злобный генерал пытается похитить Санту и его машину времени, в которой можно перемещаться в разные эпохи. Его цель — чтобы Санта больше не мог прийти к детям и чтобы Новый год больше никогда не наступил. Бернарду придется переместиться во времени, сразиться со злобным генералом, остановить его армию, спасти Новый год и стать героем!
Релиз:
Автор: yaroslaigor
Качество: BDRip (источник: DFCbit / Blu-Ray Remux [GER] / 1080р)
Формат: AVI
Видео: 704x384 (1.83:1), 23.976 fps, XviD build 65 ~2085 kbps avg, 0.32 bit/pixel
Аудио: 48 kHz, AC3 Dolby Digital, 3/2 (L,C,R,l,r) + LFE ch, ~384.00 kbps avg
Размер: 1488.03 Mb (1/3 DVD-R)
Скачать: Сэмпл- -

Mi

General
Complete name : D:\HqClub\Spasti.Santu.2013.RUS.BDRip.XviD.AC3.-HQCLUB.avi
Format : AVI
Format/Info : Audio Video Interleave
File size : 1.45 GiB
Duration : 1h 23mn
Overall bit rate : 2 479 Kbps
Movie name : Спасти Санту / Saving Santa (2013) BDRip
Director : yaroslaigor
Genre : мультфильм, мюзикл, комедия
Writing application : VirtualDubMod 1.5.10.2 (build 2542/release)
Comment : 22.12.2013
Video
ID : 0
Format : MPEG-4 Visual
Format profile : Advanced Simple@L5
Format settings, BVOP : 1
Format settings, QPel : No
Format settings, GMC : No warppoints
Format settings, Matrix : Custom
Codec ID : XVID
Codec ID/Hint : XviD
Duration : 1h 23mn
Bit rate : 2 086 Kbps
Width : 704 pixels
Height : 384 pixels
Display aspect ratio : 16:9
Frame rate : 23.976 fps
Color space : YUV
Chroma subsampling : 4:2:0
Bit depth : 8 bits
Scan type : Progressive
Compression mode : Lossy
Bits/(Pixel*Frame) : 0.322
Stream size : 1.22 GiB (84
Writing library : XviD 65
Audio
ID : 1
Format : AC-3
Format/Info : Audio Coding 3
Mode extension : CM (complete main)
Codec ID : 2000
Duration : 1h 23mn
Bit rate mode : Constant
Bit rate : 384 Kbps
Channel(s) : 6 channels
Channel positions : Front: L C R, Side: L R, LFE
Sampling rate : 48.0 KHz
Bit depth : 16 bits
Compression mode : Lossy
Stream size : 230 MiB (15
Alignment : Split accross interleaves
Interleave, duration : 42 ms (1.00 video frame)
Interleave, preload duration : 500 ms
-
Скачать

Скачать торрент! Спасти Санту / Saving Santa (Леон Джусен / Leon Joosen, Аарон Силман / Aaron Seelman) [2013, мультфильм, мюзикл, комедия, приключения, семейный, BDRip] Dub (R5)

Как скачивать? · Что такое торрент? · Рейтинг и ограничения

Сайт не распространяет и не хранит электронные версии произведений, а лишь предоставляет доступ к создаваемому пользователями каталогу ссылок на торрент-файлы, которые содержат только списки хеш-сумм

[Профиль] [ЛС]
Показать сообщения:    
Ответить на тему

Текущее время: Сегодня 19:07

Часовой пояс: GMT + 4



Вы не можете начинать темы
Вы не можете отвечать на сообщения
Вы не можете редактировать свои сообщения
Вы не можете удалять свои сообщения
Вы не можете голосовать в опросах
Вы не можете прикреплять файлы к сообщениям
Вы не можете скачивать файлы