Полицейская академия 3: Переподготовка / Police Academy 3: Back in Training (Джерри Пэрис / Jerry Paris) [1986, США, комедия, криминал, BDRemux 1080p] Dub + 3x DVO + MVO + 3x AVO (Володарский, Гаврилов, Иванов) + Sub Eng + Original Eng

Ответить на тему
 
Автор Сообщение

user ®

Стаж: 7 лет 7 месяцев

Сообщений: 20008

Пост Пост: #1 от 22-Дек-2013 17:30

[Цитировать]

Полицейская академия 3: Переподготовка / Police Academy 3: Back in Training
-
Страна: США
Студия: Police Academy Productions, Warner Bros.
Жанр: комедия, криминал
Год выпуска: 1986
Продолжительность: 01:23:44
Перевод: Профессиональный (дублированный) (Варус Видео)
Перевод 2: Профессиональный (двухголосый закадровый) (НТВ)
Перевод 3: Профессиональный (многоголосый закадровый) (Карусель)
Перевод 4: Профессиональный двухголосый (Universal Channel)
Перевод 5: Профессиональный (двухголосый закадровый)
Перевод 6: Авторский (одноголосый закадровый) (Гаврилов)
Перевод 7: Авторский (одноголосый закадровый) (Володарский)
Перевод 8: Авторский (одноголосый закадровый) (Иванов)
Cубтитры: английские
Оригинальная аудиодорожка: английский
-
Режиссер: Джерри Пэрис / Jerry Paris
Сценарий: Джин Квинтано, Нил Израэл, Пэт Профт
Продюсер: Пол Масланский, Дон Уэст
Композитор: Роберт Фолк
В ролях: Стив Гуттенберг, Бубба Смит, Дэвид Граф, Майкл Уинслоу, Мэрион Рэмси, Лесли Истербрук, Арт Метрано, Тим Казурински, Боб Голдтуэйт, Джордж Гейнс, Шон Уэзерли, Скотт Томсон, Брант фон Хоффман, Брюс Малер, Эд Нельсон, Дебрали Скотт, Лэнс Кинси, Брайан Точи, Эндрю Пэрис, Джордж Р. Робертсон, Джорджина Спелвин, Дэвид Хубанд, Дэвид Джеймс Эллиотт, Артур Батанидес, Джек Крили, Рита Такетт, Чес Лоутер, Лин Джексон, Мэри Энн Коулз, Сэм Стоун, Грант Коуэн, Брюс Пири, Даг Леннокс, Тедди Эбнер, Сьюзэн Дерек, Марсия Уоткинс, Пэм Хайатт, Фран Гебхард, Лес Ниренберг, Глория Саммерс, Фред Ливингстоун
Описание: Правительство заявило, что только одна из двух полицейских школ может продолжать свою работу. Начинается жестокое состязание на выживание — ни одна из академий не желает закрываться, в дело идут все средства.
Махони, Хайтауэр, Тэклберри, Джонс, Хукс и Кэллагэн под командованием несгибаемого коменданта Лассарда, мобилизуют для спасения своей Альма Матер новую команду безнадежных рекрутов.
Сэмпл: http://rusfolder.com/39253899
Мировая Премьера: 21 марта 1986
Сборы в США: $43 579 163
IMDB: http://www.imdb.com/title/tt0091777/?ref_=fn_al_tt_1
Kinopoisk: http://www.kinopoisk.ru/film/4966/
-
Тип релиза: BDRemux 1080p
Контейнер: MKV
Видео: MPEG-4 AVC, 26923 Кбит/с, 1920x1080, 23.976 кадр/с
Аудио: Russian, AC3, 2 ch, 192 Кбит/с (Дублированный, Варус Видео)
Аудио 2: Russian, AC3, 2 ch, 192 Кбит/с (Профессиональный двухголосый, НТВ)
Аудио 3: Russian, AC3, 2 ch, 192 Кбит/с (Профессиональный многоголосый, Карусель)
Аудио 4: Russian, AC3, 2 ch, 192 Кбит/с (Профессиональный двухголосый, Universal Channel)
Аудио 5: Russian, AC3, 2 ch, 192 Кбит/с (Профессиональный двухголосый)
Аудио 6: Russian, AC3, 2 ch, 192 Кбит/с (Авторский, Андрей Гаврилов)
Аудио 7: Russian, AC3, 2 ch, 192 Кбит/с (Авторский, Леонид Володарский)
Аудио 8: English DTS-HD MA, 1.0, 48 kHz, 1078 kbps, 24-bit (DTS Core: 1.0, 48 kHz, 768 kbps, 24-bit)
Аудио 9: Russian, AC3, 1 ch, 192 Кбит/с (Авторский, Михаил Иванов)

MediaInfo

Общее
Уникальный идентификатор : 180983548873947677583103612624600266968 (0x882829E31DF4DCAD887BD15EC06778D8)
Полное имя : E:\Художественные Фильмы\Полицейская Академия\Полицейская.академия.3.Переподготовка.1986.BluRay.Remux.1080p.mkv
Формат : Matroska
Версия формата : Version 4 / Version 2
Размер файла : 17,3 Гбайт
Продолжительность : 1 ч. 23 м.
Режим общего битрейта : Переменный
Общий поток : 29,5 Мбит/сек
Дата кодирования : UTC 2013-12-20 08:25:17
Программа кодирования : mkvmerge v6.5.0 ('Isn't she lovely') built on Oct 20 2013 12:50:05
Библиотека кодирования : libebml v1.3.0 + libmatroska v1.4.1
Видео
Идентификатор : 1
Формат : AVC
Формат/Информация : Advanced Video Codec
Профиль формата : High@L4.1
Параметр CABAC формата : Да
Параметр ReFrames формата : 2 кадра
Идентификатор кодека : V_MPEG4/ISO/AVC
Продолжительность : 1 ч. 23 м.
Вид битрейта : Переменный
Ширина : 1920 пикселей
Высота : 1080 пикселей
Соотношение сторон : 16:9
Режим частоты кадров : Постоянный
Частота кадров : 23,976 кадра/сек
Цветовое пространство : YUV
Субдискретизация насыщенности : 4:2:0
Битовая глубина : 8 бит
Тип развёртки : Прогрессивная
Default : Нет
Forced : Нет
Аудио #1
Идентификатор : 2
Формат : AC-3
Формат/Информация : Audio Coding 3
Расширение режима : CM (complete main)
Параметр Endianness формата : Big
Идентификатор кодека : A_AC3
Продолжительность : 1 ч. 23 м.
Вид битрейта : Постоянный
Битрейт : 192 Кбит/сек
Каналы : 2 канала
Расположение каналов : Front: L R
Частота : 48,0 КГц
Битовая глубина : 16 бит
Метод сжатия : С потерями
Размер потока : 115 Мбайт (1%)
Заголовок : Дубляж, Варус Видео
Язык : Russian
Default : Да
Forced : Нет
Аудио #2
Идентификатор : 3
Формат : AC-3
Формат/Информация : Audio Coding 3
Расширение режима : CM (complete main)
Параметр Endianness формата : Big
Идентификатор кодека : A_AC3
Продолжительность : 1 ч. 23 м.
Вид битрейта : Постоянный
Битрейт : 192 Кбит/сек
Каналы : 2 канала
Расположение каналов : Front: L R
Частота : 48,0 КГц
Битовая глубина : 16 бит
Метод сжатия : С потерями
Размер потока : 115 Мбайт (1%)
Заголовок : Профессиональный многоголосый - Карусель
Язык : Russian
Default : Нет
Forced : Нет
Аудио #3
Идентификатор : 4
Формат : AC-3
Формат/Информация : Audio Coding 3
Расширение режима : CM (complete main)
Параметр Endianness формата : Big
Идентификатор кодека : A_AC3
Продолжительность : 1 ч. 23 м.
Вид битрейта : Постоянный
Битрейт : 192 Кбит/сек
Каналы : 2 канала
Расположение каналов : Front: L R
Частота : 48,0 КГц
Битовая глубина : 16 бит
Метод сжатия : С потерями
Размер потока : 115 Мбайт (1%)
Заголовок : Профессиональный двухголосый
Язык : Russian
Default : Нет
Forced : Нет
Аудио #4
Идентификатор : 5
Формат : AC-3
Формат/Информация : Audio Coding 3
Расширение режима : CM (complete main)
Параметр Endianness формата : Big
Идентификатор кодека : A_AC3
Продолжительность : 1 ч. 23 м.
Вид битрейта : Постоянный
Битрейт : 192 Кбит/сек
Каналы : 2 канала
Расположение каналов : Front: L R
Частота : 48,0 КГц
Битовая глубина : 16 бит
Метод сжатия : С потерями
Размер потока : 115 Мбайт (1%)
Заголовок : Профессиональный двухголосый - НТВ
Язык : Russian
Default : Нет
Forced : Нет
Аудио #5
Идентификатор : 6
Формат : AC-3
Формат/Информация : Audio Coding 3
Расширение режима : CM (complete main)
Параметр Endianness формата : Big
Идентификатор кодека : A_AC3
Продолжительность : 1 ч. 23 м.
Вид битрейта : Постоянный
Битрейт : 192 Кбит/сек
Каналы : 2 канала
Расположение каналов : Front: L R
Частота : 48,0 КГц
Битовая глубина : 16 бит
Метод сжатия : С потерями
Размер потока : 115 Мбайт (1%)
Заголовок : Профессиональный двухголосый - Universal Channel
Язык : Russian
Default : Нет
Forced : Нет
Аудио #6
Идентификатор : 7
Формат : AC-3
Формат/Информация : Audio Coding 3
Расширение режима : CM (complete main)
Параметр Endianness формата : Big
Идентификатор кодека : A_AC3
Продолжительность : 1 ч. 23 м.
Вид битрейта : Постоянный
Битрейт : 192 Кбит/сек
Каналы : 2 канала
Расположение каналов : Front: L R
Частота : 48,0 КГц
Битовая глубина : 16 бит
Метод сжатия : С потерями
Размер потока : 115 Мбайт (1%)
Заголовок : Авторский - Андрей Гаврилов
Язык : Russian
Default : Нет
Forced : Нет
Аудио #7
Идентификатор : 8
Формат : AC-3
Формат/Информация : Audio Coding 3
Расширение режима : CM (complete main)
Параметр Endianness формата : Big
Идентификатор кодека : A_AC3
Продолжительность : 1 ч. 23 м.
Вид битрейта : Постоянный
Битрейт : 192 Кбит/сек
Каналы : 2 канала
Расположение каналов : Front: L R
Частота : 48,0 КГц
Битовая глубина : 16 бит
Метод сжатия : С потерями
Размер потока : 115 Мбайт (1%)
Заголовок : Авторский - Леонид Володарский
Язык : Russian
Default : Нет
Forced : Нет
Аудио #8
Идентификатор : 9
Формат : DTS
Формат/Информация : Digital Theater Systems
Профиль формата : MA / Core
Режим : 16
Параметр Endianness формата : Big
Идентификатор кодека : A_DTS
Продолжительность : 1 ч. 23 м.
Вид битрейта : Переменный
Битрейт : Неизвестно / 768 Кбит/сек
Каналы : 1 канал
Расположение каналов : Front: C
Частота : 48,0 КГц
Битовая глубина : 24 бит
Метод сжатия : Без потерь / Lossy
Язык : English
Default : Нет
Forced : Нет
Аудио #9
Идентификатор : 11
Формат : AC-3
Формат/Информация : Audio Coding 3
Расширение режима : CM (complete main)
Параметр Endianness формата : Big
Идентификатор кодека : A_AC3
Продолжительность : 1 ч. 23 м.
Вид битрейта : Постоянный
Битрейт : 192 Кбит/сек
Каналы : 1 канал
Расположение каналов : Front: C
Частота : 48,0 КГц
Битовая глубина : 16 бит
Метод сжатия : С потерями
Размер потока : 115 Мбайт (1%)
Заголовок : Авторский - Михаил Иванов
Язык : Russian
Default : Нет
Forced : Нет
Текст
Идентификатор : 10
Формат : PGS
Режим смешивания : zlib
Идентификатор кодека : S_HDMV/PGS
Идентификатор кодека/Информация : The same subtitle format used on BDs/HD-DVDs
Язык : English
Default : Да
Forced : Нет
Меню
00:00:00.000 : en:00:00:00.000
00:08:03.525 : en:00:08:03.525
00:11:20.179 : en:00:11:20.179
00:14:20.401 : en:00:14:20.401
00:20:58.340 : en:00:20:58.340
00:24:23.170 : en:00:24:23.170
00:27:21.515 : en:00:27:21.515
00:31:02.444 : en:00:31:02.444
00:34:17.555 : en:00:34:17.555
00:36:36.611 : en:00:36:36.611
00:38:13.625 : en:00:38:13.625
00:42:37.764 : en:00:42:37.764
00:45:34.774 : en:00:45:34.774
00:47:51.744 : en:00:47:51.744
00:51:00.766 : en:00:51:00.766
00:55:35.958 : en:00:55:35.958
00:57:12.804 : en:00:57:12.804
01:02:02.344 : en:01:02:02.344
01:06:12.051 : en:01:06:12.051
01:11:43.508 : en:01:11:43.508
01:14:02.855 : en:01:14:02.855
01:20:05.009 : en:01:20:05.009

Скриншоты

Скачать

Скачать торрент!

Как скачивать? · Что такое торрент? · Рейтинг и ограничения

Сайт не распространяет и не хранит электронные версии произведений, а лишь предоставляет доступ к создаваемому пользователями каталогу ссылок на торрент-файлы, которые содержат только списки хеш-сумм

[Профиль] [ЛС]
Показать сообщения:    
Ответить на тему

Текущее время: Сегодня 01:15

Часовой пояс: GMT + 4



Вы не можете начинать темы
Вы не можете отвечать на сообщения
Вы не можете редактировать свои сообщения
Вы не можете удалять свои сообщения
Вы не можете голосовать в опросах
Вы не можете прикреплять файлы к сообщениям
Вы не можете скачивать файлы