Два ствола / 2 Guns (Бальтасар Кормакур / Baltasar Kormákur) [2013, США, Боевик, Триллер, Драма, Комедия, Криминал, BDRip] Dub (CEE со вставками) + Dub (Ukr)

Ответить на тему
 
Автор Сообщение

user ®

Стаж: 7 лет 7 месяцев

Сообщений: 20008

Пост Пост: #1 от 22-Дек-2013 11:10

[Цитировать]

Два ствола / 2 Guns-«Карты есть, деньги будут»
-Страна: США
Жанр: Боевик, Триллер, Драма, Комедия, Криминал
Год выпуска: 2013
Продолжительность: 01:49:19-Перевод: Профессиональный (дублированный) CEE со вставками на испанскую речь (Ю.Сербин)
Перевод 2: Профессиональный (дублированный) Украинский
Cубтитры: нет-Режиссер: Бальтасар Кормакур / Baltasar Kormakur-В ролях: Дензел Вашингтон /Denzel Washington/, Марк Уолберг /Mark Wahlberg/, Пола Пэттон /Paula Patton/, Билл Пэкстон /Bill Paxton/, Эдвард Джеймс Олмос /Edward James Olmos/, Джеймс Марсден /James Marsden/, Фред Уорд /Fred Ward/, Роберт Джон Бёрк /Robert John Burke/, Лаки Джонсон /Lucky Johnson/, Патрик Фишлер /Patrick Fischler-Описание: Это история двух грабителей, которые на самом деле не те, кем кажутся. Один из них — агент из управления по борьбе с наркотиками, а другой — тайный агент разведки ВМС. Сами того не желая, они занимаются расследованием дел друг друга, а также воруют деньги у мафии. Через некоторое время героям придется украсть 50 миллионов долларов у ЦРУ.-Доп. информация:

Автор рипа: MECHANICAL ENGINEER-Качество видео: BDRip (Blu-ray CEE / TTG)
Формат видео: AVI
Видео: 720x304 (2.37:1), 23.975 fps, XviD build 65 ~1955 kbps avg, 0.37 bit/pixel
Аудио: 48 kHz, AC3 Dolby Digital, 3/2 (L,C,R,l,r) + LFE ch, ~448.00 kbps avg | Русский дублированный
Аудио: 48 kHz, AC3 Dolby Digital, 3/2 (L,C,R,l,r) + LFE ch, ~448.00 kbps avg | Украинский дублированный
Размер файла: 2234.99 Mb (1/2 DVD5)

MediaInfo

Format                           : AVI
Format/Info                      : Audio Video Interleave
Format profile                   : OpenDML
File size                        : 2.18 GiB
Duration                         : 1h 49mn
Overall bit rate                 : 2 858 Kbps
Movie name                       : Два ствола / 2 Guns (2013)
Director                         : MECHANICAL ENGINEER (Blu-Ray)
Writing application              : VirtualDubMod 1.5.10.3 | www.virtualdub-fr.org || (build 2550/release)
Copyright                        : HQ-ViDEO
Comment                          : 20.12.13
Video
ID                               : 0
Format                           : MPEG-4 Visual
Format profile                   : Advanced Simple@L5
Format settings, BVOP            : Yes
Format settings, QPel            : No
Format settings, GMC             : No warppoints
Format settings, Matrix          : Custom
Codec ID                         : XVID
Codec ID/Hint                    : XviD
Duration                         : 1h 49mn
Bit rate                         : 1 945 Kbps
Width                            : 720 pixels
Height                           : 304 pixels
Display aspect ratio             : 2.35:1
Frame rate                       : 23.976 fps
Color space                      : YUV
Chroma subsampling               : 4:2:0
Bit depth                        : 8 bits
Scan type                        : Progressive
Bits/(Pixel*Frame)               : 0.371
Stream size                      : 1.48 GiB (68%)
Writing library                  : XviD 65
Audio #1
ID                               : 1
Format                           : AC-3
Format/Info                      : Audio Coding 3
Mode extension                   : CM (complete main)
Codec ID                         : 2000
Duration                         : 1h 49mn
Bit rate mode                    : Constant
Bit rate                         : 448 Kbps
Channel(s)                       : 6 channels
Channel positions                : Front: L C R, Side: L R, LFE
Sampling rate                    : 48.0 KHz
Bit depth                        : 16 bits
Stream size                      : 350 MiB (16%)
Alignment                        : Split accross interleaves
Interleave, duration             : 42 ms (1.00 video frame)
Interleave, preload duration     : 500 ms
Audio #2
ID                               : 2
Format                           : AC-3
Format/Info                      : Audio Coding 3
Mode extension                   : CM (complete main)
Codec ID                         : 2000
Duration                         : 1h 49mn
Bit rate mode                    : Constant
Bit rate                         : 448 Kbps
Channel(s)                       : 6 channels
Channel positions                : Front: L C R, Side: L R, LFE
Sampling rate                    : 48.0 KHz
Bit depth                        : 16 bits
Stream size                      : 350 MiB (16%)
Alignment                        : Split accross interleaves
Interleave, duration             : 42 ms (1.00 video frame)
Interleave, preload duration     : 500 ms

Скриншоты для оценки качества (превью - увеличение по клику):




О вставках в дубляже:

Тайминги где стоят вставки (Ю.Сербин)
00:09:32
01:08:47
01:10:23
ПРИЯТНОГО ПРОСМОТРА!
Скачать

Скачать торрент!

Как скачивать? · Что такое торрент? · Рейтинг и ограничения

Сайт не распространяет и не хранит электронные версии произведений, а лишь предоставляет доступ к создаваемому пользователями каталогу ссылок на торрент-файлы, которые содержат только списки хеш-сумм

[Профиль] [ЛС]
Показать сообщения:    
Ответить на тему

Текущее время: Сегодня 08:26

Часовой пояс: GMT + 4



Вы не можете начинать темы
Вы не можете отвечать на сообщения
Вы не можете редактировать свои сообщения
Вы не можете удалять свои сообщения
Вы не можете голосовать в опросах
Вы не можете прикреплять файлы к сообщениям
Вы не можете скачивать файлы