Риддик / Riddick (Дэвид Туи / David Twohy) [2013, США, Великобритания, фантастика, боевик, триллер, BDRip] Dub (Лицензия)

Ответить на тему
 
Автор Сообщение

user ®

Стаж: 7 лет 7 месяцев

Сообщений: 20008

Пост Пост: #1 от 22-Дек-2013 11:10

[Цитировать]

РиддикRiddick«Лучший способ отомстить - остаться в живых»- Страна: США, Великобритания
Жанр: фантастика, боевик, триллер
Год выпуска: 2013
Продолжительность: 01:58:40-Перевод: Профессиональный (полное дублирование) [Лицензия]
Субтитры: нет
Режиссер: Дэвид Туи / David Twohy
В ролях: Вин Дизель, Хорди Молья, Мэтью Нэйбл, Кэти Сакхофф, Дэйв Батиста, Букем Вудбайн, Рауль Трухильо, Конрад Пла, Дэнни Бланко, Карл Урбан, Ной Дэнби, Нил Напье-Описание: Преданный своими и брошенный умирать на пустынной планете, Риддик сражается с хищниками за жизнь и становится сильнее и опаснее себя прежнего. Открывшие на него охоту галактические наемники оказываются пешками в грандиозном плане отмщения. С врагами, возникающими на его пути тогда, когда это нужно самому Риддику, он начинает поход во имя мести, чтобы в конечном счете вернуться на родную Фурию и спасти ее от уничтожения.-


MPAA: R - Лицам до 17 лет обязательно присутствие взрослого-

Доп. Информация

Сценарий: Дэвид Туи / David Twohy, Джим Уит / Jim Wheat, Кен Уит / Ken Wheat
Продюсер: Вин Дизель / Vin Diesel, Тед Филд / Ted Field, Камилль Браун / Camille Brown, Майк Дрэйк / Mike Drake, Джимми Финкл / Jimmy Finkl
Оператор: Дэвид Эггби / David Eggby
Композитор: Грэм Ревелл / Graeme Revell
Бюджет: $38 000 000
Сборы в США: $42 025 135
Сборы в России: $10 246 070
Сборы в мире: $98 337 295
Мировая премьера: 4 сентября 2013
-Качество: BDRip [Рип с Blu-Ray Disc]
Контейнер: AVI
Видео: XviD, 720x304 (2.35:1), 1366 kbps, 23,976 fps, 0,260 bpp
Аудио: AC3 / 5.1 / 48 kHz / 384 kbps / 16 bit-

Знаете ли Вы, что...

  • Вин Дизель согласился сыграть эпизодическую роль в фильме «Тройной форсаж: Токийский Дрифт» (2006) в обмен на права на франшизу «Риддика» от Universal Pictures. Это позволило ему заниматься производством «Риддика» самостоятельно.
  • Кери Хилсон проходила прослушивание на роль Дали. Роль в итоге отошла Кэти Сакхофф, но Дэвид Туи был настолько впечатлен харизмой Хилсон, что написал небольшую роль специально для нее.
  • Первоначальное название сценария было - «Хроники Риддика: Преследование мертвеца» (The Chronicles of Riddick: Dead Man Stalking).
  • Производство фильма оказалось под угрозой срыва, когда была задержка в финансировании. В итоге Вин Дизель взял на себя финансирование фильма до тех пор, пока не разрешилась проблема с банковской ссудой.
  • Персонаж Мэтью Нэйбла - Босс Джонс - это отец Уильяма Дж. Джонса, которого в фильме «Черная дыра» (1999) сыграл Коул Хаузер. В реальной жизни Нэйбл всего на три года старше Хаузера.
  • еще 2 факта
  • В конце фильма, когда Даль спускается с корабля, чтобы привязать Риддика к веревке, идет дождь. Однако Даль и Риддик полностью сухие. Даже волосы Дали свободно развеваются на ветру.

Media Info

General
Complete name : G:\Riddick.2013.D.BDRip_1.46Gb.avi
Format : AVI
Format/Info : Audio Video Interleave
File size : 1.46 GiB
Duration : 1h 58mn
Overall bit rate : 1 760 Kbps
Writing application : VirtualDubMod 1.5.10.2 (build 2540/release)
Writing library : VirtualDubMod build 2540/release
Video
ID : 0
Format : MPEG-4 Visual
Format profile : Advanced Simple@L5
Format settings, BVOP : 2
Format settings, QPel : No
Format settings, GMC : No warppoints
Format settings, Matrix : Custom
Codec ID : XVID
Codec ID/Hint : XviD
Duration : 1h 58mn
Bit rate : 1 367 Kbps
Width : 720 pixels
Height : 304 pixels
Display aspect ratio : 2.35:1
Frame rate : 23.976 fps
Color space : YUV
Chroma subsampling : 4:2:0
Bit depth : 8 bits
Scan type : Progressive
Compression mode : Lossy
Bits/(Pixel*Frame) : 0.260
Stream size : 1.13 GiB (78%)
Writing library : XviD 1.2.1 (UTC 2008-12-04)
Audio
ID : 1
Format : AC-3
Format/Info : Audio Coding 3
Mode extension : CM (complete main)
Codec ID : 2000
Duration : 1h 58mn
Bit rate mode : Constant
Bit rate : 384 Kbps
Channel(s) : 6 channels
Channel positions : Front: L C R, Side: L R, LFE
Sampling rate : 48.0 KHz
Bit depth : 16 bits
Compression mode : Lossy
Stream size : 326 MiB (22%)
Alignment : Split accross interleaves
Interleave, duration : 42 ms (1.00 video frame)
Interleave, preload duration : 500 ms

Скриншот с названием фильма

Скриншоты

Скачать

Скачать торрент!

Как скачивать? · Что такое торрент? · Рейтинг и ограничения

Сайт не распространяет и не хранит электронные версии произведений, а лишь предоставляет доступ к создаваемому пользователями каталогу ссылок на торрент-файлы, которые содержат только списки хеш-сумм

[Профиль] [ЛС]
Показать сообщения:    
Ответить на тему

Текущее время: Сегодня 04:23

Часовой пояс: GMT + 4



Вы не можете начинать темы
Вы не можете отвечать на сообщения
Вы не можете редактировать свои сообщения
Вы не можете удалять свои сообщения
Вы не можете голосовать в опросах
Вы не можете прикреплять файлы к сообщениям
Вы не можете скачивать файлы