Мой белый и пушистый / Мой милый, белый, пушистый (Максим Демченко) [2013, Мелодрама, SATRip]

Ответить на тему
 
Автор Сообщение

user ®

Стаж: 7 лет 7 месяцев

Сообщений: 20008

Пост Пост: #1 от 22-Дек-2013 06:25

[Цитировать]

Мой белый и пушистый / Мой милый, белый, пушистый
Жанр: Мелодрама
Год выпуска: 2013
Продолжительность: 01:33:00
Режиссёр: Максим Демченко
В ролях: Светлана Антонова, Андрей Биланов, Руслан Чернецкий, Юлия Кудояр, Анастасия Сорокина, Ольга Клебанович, Владимир Мищанчук, Анна Хитрик, Андрей Кривецкий, Антон Старовойтов, Анастасия Клименко, Оксана Лесная, Елена Дубровская, Евгений Хамелянский
Описание: Лена всегда была хорошей женой. Ради мужа Виталия она оставила успешную карьеру и занялась домашним хозяйством. Только все напрасно. Муж потихоньку крутит романы, а свекровь пилит Лену за то, что у нее нет детей. По мнению свекрови семья без детей – не семья. А если Лена родить в не состоянии, Виталию нужно найти другую жену. Поэтому когда Виталий заводит очередной роман, свекровь едва ли не аплодирует. А для Лены это, естественно, сильный удар. И, к сожалению, не единственный. В автомобильной катастрофе погибает близкая подруга Лены, оставив сиротой маленького сына Дениску. Лене предстоит «сразиться» за ребёнка с пьющим братом подруги и в непростых условиях добиться опеки над малышом. Не сломаться под грузом проблем женщине поможет новый знакомый – сосед подруги – Николай…
Сэмпл: http://multi-up.com/934555
Качество видео: SATRip
Формат видео: AVI
Видео: XviD, 720x400, 25.00fps, ~ 2051 Кбит/сек, 0.285 bit/pixel
Аудио: MP3, 48000 Hz, stereo, 192 Кбит/сек

MediaInfo

Общее
Полное имя : R:\Сериалы\Фильмы\Мой белый и пушистый (Мой милый, белый, пушистый).2013.XviD.SATRip.by.simka_1500 МБ.avi
Формат : AVI
Формат/Информация : Audio Video Interleave
Размер файла : 1,47 Гбайт
Продолжительность : 1 ч. 33 м.
Общий поток : 2253 Кбит/сек
Программа кодирования : VirtualDubMod 1.5.10.3 | www.virtualdub-fr.org || (build 2550/release)
Библиотека кодирования : VirtualDubMod build 2550/release
Видео
Идентификатор : 0
Формат : MPEG-4 Visual
Профиль формата : Advanced Simple@L5
Параметр BVOP формата : 1
Параметр QPel формата : Нет
Параметр GMC формата : Без точки перехода
Параметр матрицы формата : Default (H.263)
Идентификатор кодека : XVID
Идентификатор кодека/Подсказка : XviD
Продолжительность : 1 ч. 33 м.
Битрейт : 2051 Кбит/сек
Ширина : 720 пикселей
Высота : 400 пикселей
Соотношение сторон : 16:9
Частота кадров : 25,000 кадров/сек
Цветовое пространство : YUV
Субдискретизация насыщенности : 4:2:0
Битовая глубина : 8 бит
Тип развёртки : Прогрессивная
Метод сжатия : С потерями
Бит/(Пиксели*Кадры) : 0.285
Размер потока : 1,33 Гбайт (91%)
Библиотека кодирования : XviD 1.2.1 (UTC 2008-12-04)
Аудио
Идентификатор : 1
Формат : MPEG Audio
Версия формата : Version 1
Профиль формата : Layer 3
Режим : Joint stereo
Расширение режима : MS Stereo
Идентификатор кодека : 55
Идентификатор кодека/Подсказка : MP3
Продолжительность : 1 ч. 33 м.
Вид битрейта : Постоянный
Битрейт : 192 Кбит/сек
Каналы : 2 канала
Частота : 48,0 КГц
Метод сжатия : С потерями
Размер потока : 128 Мбайт (9%)
Выравнивание : Соединение по промежуткам
Продолжительность промежутка : 40 мс. (1,00 видеокадр)
Время предзагрузки промежутка : 504 мс.
Библиотека кодирования : LAME3.99r
Настройки программы : -m j -V 4 -q 2 -lowpass 18.6 -b 192

Скриншот c названием фильма

Скриншоты

Релиз группы:
Скачать

Скачать торрент!

Как скачивать? · Что такое торрент? · Рейтинг и ограничения

Сайт не распространяет и не хранит электронные версии произведений, а лишь предоставляет доступ к создаваемому пользователями каталогу ссылок на торрент-файлы, которые содержат только списки хеш-сумм

[Профиль] [ЛС]
Показать сообщения:    
Ответить на тему

Текущее время: Сегодня 10:54

Часовой пояс: GMT + 4



Вы не можете начинать темы
Вы не можете отвечать на сообщения
Вы не можете редактировать свои сообщения
Вы не можете удалять свои сообщения
Вы не можете голосовать в опросах
Вы не можете прикреплять файлы к сообщениям
Вы не можете скачивать файлы