Ниндзя 2 / Ninja: Shadow of a Tear (Айзек Флорентайн / Isaac Florentine) [2013, США, Боевик, триллер, криминал, WEB-DLRip] DVO (Paradox)

Ответить на тему
 
Автор Сообщение

user ®

Стаж: 7 лет 7 месяцев

Сообщений: 20008

Пост Пост: #1 от 22-Дек-2013 06:25

[Цитировать]

Ниндзя 2 / Ninja: Shadow of a Tear- Год выпуска: 2013
Выпущено: Таиланд, США / Swingin' Productions LLC
Жанр: боевик, триллер, криминал
Продолжительность: 01:34:41
Перевод: Любительский (двухголосый закадровый) Студия "Paradox"
Cубтитры: нет-Режиссер:
Айзек Флорентайн / Isaac Florentine-В ролях:
Скотт Эдкинс, Витхая Пансрингарм, Кейн Косуги, Тим Ман, Чарли Рюдпоканон, Рон Смуренбург, Мика Хиджии, Сюн Сугата, Эрика Нагаминэ, Патрик Тэнг-Описание:
Кейси Боумен, наконец, начал оседлую жизнь. Он в счастливом браке с Намико (которая беременна первенцем), живёт в Японии и преподаёт в додзё Кога. Однажды на Кейси, отправившегося за подарком для жены, нападает пара отморозков. Он не придаёт этому значения, считая всё обычным грабежом. Но когда той же ночью жестоко убивают Намико, мир Кейси рушится на части. Поражённый горем и пылающий жаждой мести, Кейси выслеживает двух бандитов, пытавшихся его ограбить, но те не могут предоставить ему ключи к разгадке убийства его жены. Поэтому Кейси отправляется в Таиланд, в додзё близкого друга. Горе и гнев берут над ним верх, и он «срывается» во время спарринга с учениками. Когда одного из учеников убивают так же, как и Намико, Кейси, наконец, находит улики, которые ему нужны для того, чтобы выследить убийцу своей жены и разгадать тайну, хранящуюся в глубине бирманских джунглей.-IMDB | КиноПоиск | Сэмпл |-Качество: WEB-DLRip [WEB-DL.720p]
Формат: AVI
Видео: 720x400 (1.80:1), 23.976 fps, XviD build 73 ~1812 kbps avg, 0.26 bit/pixel
Аудио #1: 48 kHz, AC3 Dolby Digital, 2/0 (L,R) ch, ~192.00 kbps avg (RUS)
Аудио #2: 48 kHz, AC3 Dolby Digital, 2/0 (L,R) ch, ~192.00 kbps avg (ENG)
-

Скриншоты

MediaInfo

General
Complete name                            : D:\Ninja_2_2013_WEB_DLRip_by_Dalemake.avi
Format                                   : AVI
Format/Info                              : Audio Video Interleave
File size                                : 1.46 GiB
Duration                                 : 1h 34mn
Overall bit rate                         : 2 211 Kbps
Writing application                      : VirtualDubMod 1.5.10.3 | www.virtualdub-fr.org || (build 2550/release)
Writing library                          : VirtualDubMod build 2550/release
Video
ID                                       : 0
Format                                   : MPEG-4 Visual
Format profile                           : Advanced Simple@L5
Format settings, BVOP                    : 1
Format settings, QPel                    : No
Format settings, GMC                     : No warppoints
Format settings, Matrix                  : Custom
Codec ID                                 : XVID
Codec ID/Hint                            : XviD
Duration                                 : 1h 34mn
Bit rate                                 : 1 813 Kbps
Width                                    : 720 pixels
Height                                   : 400 pixels
Display aspect ratio                     : 16:9
Frame rate                               : 23.976 fps
Color space                              : YUV
Chroma subsampling                       : 4:2:0
Bit depth                                : 8 bits
Scan type                                : Progressive
Compression mode                         : Lossy
Bits/(Pixel*Frame)                       : 0.263
Stream size                              : 1.20 GiB (82%)
Writing library                          : XviD 73
Audio #1
ID                                       : 1
Format                                   : AC-3
Format/Info                              : Audio Coding 3
Mode extension                           : CM (complete main)
Format settings, Endianness              : Big
Codec ID                                 : 2000
Duration                                 : 1h 34mn
Bit rate mode                            : Constant
Bit rate                                 : 192 Kbps
Channel(s)                               : 2 channels
Channel positions                        : Front: L R
Sampling rate                            : 48.0 KHz
Bit depth                                : 16 bits
Compression mode                         : Lossy
Stream size                              : 130 MiB (9%)
Alignment                                : Split accross interleaves
Interleave, duration                     : 42 ms (1.00 video frame)
Interleave, preload duration             : 500 ms
Audio #2
ID                                       : 2
Format                                   : AC-3
Format/Info                              : Audio Coding 3
Mode extension                           : CM (complete main)
Format settings, Endianness              : Big
Codec ID                                 : 2000
Duration                                 : 1h 34mn
Bit rate mode                            : Constant
Bit rate                                 : 192 Kbps
Channel(s)                               : 2 channels
Channel positions                        : Front: L R
Sampling rate                            : 48.0 KHz
Bit depth                                : 16 bits
Compression mode                         : Lossy
Stream size                              : 130 MiB (9%)
Alignment                                : Split accross interleaves
Interleave, duration                     : 42 ms (1.00 video frame)
Interleave, preload duration             : 500 ms
Скачать

Скачать торрент!

Как скачивать? · Что такое торрент? · Рейтинг и ограничения

Сайт не распространяет и не хранит электронные версии произведений, а лишь предоставляет доступ к создаваемому пользователями каталогу ссылок на торрент-файлы, которые содержат только списки хеш-сумм

[Профиль] [ЛС]
Показать сообщения:    
Ответить на тему

Текущее время: Сегодня 20:33

Часовой пояс: GMT + 4



Вы не можете начинать темы
Вы не можете отвечать на сообщения
Вы не можете редактировать свои сообщения
Вы не можете удалять свои сообщения
Вы не можете голосовать в опросах
Вы не можете прикреплять файлы к сообщениям
Вы не можете скачивать файлы