Va-банк / Runner Runner (Брэд Фурман / Brad Furman) [2013, США, триллер, драма, криминал, HDRip] Dub (Line)

Ответить на тему
 
Автор Сообщение

user ®

Стаж: 7 лет 7 месяцев

Сообщений: 20008

Пост Пост: #1 от 21-Дек-2013 09:00

[Цитировать]

Va-банкRunner Runner«Игра стоит свеч»- Страна: США
Жанр: триллер, драма, криминал
Год выпуска: 2013
Продолжительность: 01:31:39-Перевод: Профессиональный (полное дублирование) [Чистый звук]
Субтитры: нет
Режиссер: Брэд Фурман / Brad Furman
В ролях: Джастин Тимберлэйк, Бен Аффлек, Джемма Артертон, Энтони Маки, Майкл Эспер, Оливер Купер, Кристиан Джордж, Юл Васкез, Джон Хёрд, Джеймс Молина, Луис Ломбарди, Винсент Лареска-Описание: Чтобы оплачивать учёбу в колледже, Ричи погружается в мир азартных игр онлайн. Когда удача изменяет ему, он отправляется на Коста-Рику, чтобы помериться силами с настоящим асом игрового бизнеса. Тот видит в Ричи родственную душу и вводит его в свою игру. Но когда степень опасности возрастает, а ставки достигают невероятных высот, Ричи вдруг отчётливо понимает, что его новый босс вот-вот совершит непоправимое, и пытается поменяться с ним ролями.-


MPAA: R - Лицам до 17 лет обязательно присутствие взрослого-

Доп. Информация

Сценарий: Брайан Коппельман / Brian Koppelman, Дэвид Левин / David Levien
Продюсер: Леонардо ДиКаприо / Leonardo DiCaprio, Дженнифер Дэвиссон / Jennifer Davisson, Брайан Коппельман / Brian Koppelman, Дэвид Левин / David Levien, Майкл Шамберг / Michael Shamberg
Оператор: Мауро Фиоре / Mauro Fiore
Композитор: Кристоф Бек / Christophe Beck
Бюджет: $30 000 000
Сборы в США: $19 316 646
Сборы в России: $6 259 388
Сборы в мире: $62 675 095
Мировая премьера: 18 сентября 2013
Релиз на DVD: 6 февраля 2014,
«Двадцатый Век Фокс СНГ»

Релиз на Blu-ray: 6 февраля 2014,
«Двадцатый Век Фокс СНГ»
-Качество: HDRip (Исходник BDRip 1080p)
Контейнер: AVI
Видео: 720x304 (2.37:1), 23.976 fps, XviD build 50 ~1744 kbps avg, 0.33 bit/pixel
Аудио: 48 kHz, AC3 Dolby Digital, 3/2 (L,C,R,l,r) + LFE ch, ~384 kbps-

Media Info

Общее
Полное имя : G:\Va-bank.2013.D.HDRip_1400MB.avi
Формат : AVI
Формат/Информация : Audio Video Interleave
Размер файла : 1,37 Гбайт
Продолжительность : 1 ч. 31 м.
Общий поток : 2138 Кбит/сек
Программа кодирования : VirtualDubMod 1.5.10.2 (build 2540/release)
Библиотека кодирования : VirtualDubMod build 2540/release
Видео
Идентификатор : 0
Формат : MPEG-4 Visual
Профиль формата : Advanced Simple@L5
Параметр BVOP формата : 2
Параметр QPel формата : Нет
Параметр GMC формата : Без точки перехода
Параметр матрицы формата : Выборочная
Идентификатор кодека : XVID
Идентификатор кодека/Подсказка : XviD
Продолжительность : 1 ч. 31 м.
Битрейт : 1745 Кбит/сек
Ширина : 720 пикселей
Высота : 304 пикселя
Соотношение сторон : 2,35:1
Частота кадров : 23,976 кадра/сек
Цветовое пространство : YUV
Субдискретизация насыщенности : 4:2:0
Битовая глубина : 8 бит
Тип развёртки : Прогрессивная
Метод сжатия : С потерями
Бит/(Пиксели*Кадры) : 0.332
Размер потока : 1,12 Гбайт (82%)
Библиотека кодирования : XviD 1.2.1 (UTC 2008-12-04)
Аудио
Идентификатор : 1
Формат : AC-3
Формат/Информация : Audio Coding 3
Расширение режима : CM (complete main)
Параметр Endianness формата : Big
Идентификатор кодека : 2000
Продолжительность : 1 ч. 31 м.
Вид битрейта : Постоянный
Битрейт : 384 Кбит/сек
Каналы : 6 каналов
Расположение каналов : Front: L C R, Side: L R, LFE
Частота : 48,0 КГц
Битовая глубина : 16 бит
Метод сжатия : С потерями
Размер потока : 251 Мбайт (18%)
Выравнивание : Разделение по промежуткам
Продолжительность промежутка : 42 мс. (1,00 видеокадр)
Время предзагрузки промежутка : 500 мс.

Скриншот с названием фильма

Скриншоты

Скачать

Скачать торрент!

Как скачивать? · Что такое торрент? · Рейтинг и ограничения

Сайт не распространяет и не хранит электронные версии произведений, а лишь предоставляет доступ к создаваемому пользователями каталогу ссылок на торрент-файлы, которые содержат только списки хеш-сумм

[Профиль] [ЛС]
Показать сообщения:    
Ответить на тему

Текущее время: Сегодня 12:34

Часовой пояс: GMT + 4



Вы не можете начинать темы
Вы не можете отвечать на сообщения
Вы не можете редактировать свои сообщения
Вы не можете удалять свои сообщения
Вы не можете голосовать в опросах
Вы не можете прикреплять файлы к сообщениям
Вы не можете скачивать файлы