Фото на документы (Максим Мехеда) [2013, мелодрама, WEB-DLRip]

Ответить на тему
 
Автор Сообщение

user ®

Стаж: 7 лет 7 месяцев

Сообщений: 20008

Пост Пост: #1 от 21-Дек-2013 05:50

[Цитировать]

Фото на документы
Жанр: мелодрама
Год выпуска: 2013
Продолжительность: 01:30:13
Режиссёр: Максим Мехеда
В ролях: Юлия Маврина, Эльдар Лебедев, Иван Безбородов, Любава Грешнова, Петр Крылов, Владимир Кузнецов, Андрей Валенский, Игорь Рубашкин, Андрей Павленко, Александр Данильченко
Описание: Пять лет назад у московских студентов-молодоженов Ани и Влада не было ничего, кроме любви. Теперь у них есть престижная работа, хорошая квартира, на все праздники Аня получает от мужа дорогие подарки. А что же с любовью? В какой-то момент Ане стало казаться, что чувства ушли… Чтобы разобраться в себе, она едет в командировку в Киев. А там бушует май — цветут каштаны, дурманит запах сирени, манят романтические улочки. И рядом все время оказывается молодой фотограф. Позже они познакомятся и обнаружат удивительное родство душ. И Аня влюбится! Или ей это только показалось? И какая тайна откроется, когда в Киев к ней приедет муж? Как поступит Аня — окунется в новые отношения или станет искать глубину в старых?
Сэмпл: http://multi-up.com/934263
Качество видео: WEB-DLRip
Формат видео: AVI
Видео: XviD, 720x400, 1966 Кбит/с, 25 fps
Аудио: AC3, 2 ch, 192 Кбит/с, 44 КГц

MediaInfo

бщее
Полное имя : D:\Foto.na.dokumenty_2013.WEBDLRip.avi
Формат : AVI
Формат/Информация : Audio Video Interleave
Размер файла : 1,37 Гбайт
Продолжительность : 1 ч. 30 м.
Общий поток : 2169 Кбит/сек
Программа кодирования : VirtualDubMod 1.5.10.3 | www.virtualdub-fr.org || (build 2550/release)
Библиотека кодирования : VirtualDubMod build 2550/release
Видео
Идентификатор : 0
Формат : MPEG-4 Visual
Профиль формата : Advanced Simple@L5
Параметр BVOP формата : 2
Параметр QPel формата : Нет
Параметр GMC формата : Без точки перехода
Параметр матрицы формата : Default (H.263)
Идентификатор кодека : XVID
Идентификатор кодека/Подсказка : XviD
Продолжительность : 1 ч. 30 м.
Битрейт : 1967 Кбит/сек
Ширина : 720 пикселей
Высота : 400 пикселей
Соотношение сторон : 16:9
Частота кадров : 25,000 кадров/сек
Цветовое пространство : YUV
Субдискретизация насыщенности : 4:2:0
Битовая глубина : 8 бит
Тип развёртки : Прогрессивная
Метод сжатия : С потерями
Бит/(Пиксели*Кадры) : 0.273
Размер потока : 1,24 Гбайт (91%)
Библиотека кодирования : XviD 1.2.1 (UTC 2008-12-04)
Аудио
Идентификатор : 1
Формат : AC-3
Формат/Информация : Audio Coding 3
Расширение режима : CM (complete main)
Параметр Endianness формата : Big
Идентификатор кодека : 2000
Продолжительность : 1 ч. 30 м.
Вид битрейта : Постоянный
Битрейт : 192 Кбит/сек
Каналы : 2 канала
Расположение каналов : Front: L R
Частота : 44,1 КГц
Битовая глубина : 16 бит
Метод сжатия : С потерями
Размер потока : 124 Мбайт (9%)
Выравнивание : Разделение по промежуткам
Продолжительность промежутка : 40 мс. (1,00 видеокадр)
Время предзагрузки промежутка : 500 мс.

Скриншот c названием фильма

Скриншоты

Скачать

Скачать торрент!

Как скачивать? · Что такое торрент? · Рейтинг и ограничения

Сайт не распространяет и не хранит электронные версии произведений, а лишь предоставляет доступ к создаваемому пользователями каталогу ссылок на торрент-файлы, которые содержат только списки хеш-сумм

[Профиль] [ЛС]
Показать сообщения:    
Ответить на тему

Текущее время: Сегодня 06:00

Часовой пояс: GMT + 4



Вы не можете начинать темы
Вы не можете отвечать на сообщения
Вы не можете редактировать свои сообщения
Вы не можете удалять свои сообщения
Вы не можете голосовать в опросах
Вы не можете прикреплять файлы к сообщениям
Вы не можете скачивать файлы