Страсти Дон Жуана / Don Jon (Джозеф Гордон-Левитт / Joseph Gordon-Levitt) [2013, США, Комедия, мелодрама, BDRip] [US] Dub

Ответить на тему
 
Автор Сообщение

user ®

Стаж: 7 лет 7 месяцев

Сообщений: 20008

Пост Пост: #1 от 21-Дек-2013 01:10

[Цитировать]

Страсти Дон Жуана / Don Jon
«В этой жизни меня заботит всего несколько вещей: мое тело, мой дом, моя тачка, мои друзья, мои телки и… порнуха»
- Год выпуска: 2013
Выпущено: США / Voltage Pictures
Жанр: комедия, мелодрама
Продолжительность: 01:30:12
Перевод: Профессиональный (полное дублирование) BD RUS
Субтитры: нет-Режиссер:
Джозеф Гордон-Левитт / Joseph Gordon-Levitt-В ролях:
Джозеф Гордон-Левитт (Jon), Скарлетт Йоханссон (Barbara), Джулианна Мур (Esther), Тони Данца (Jon Sr.), Гленн Хедли (Angela), Бри Ларсон (Monica), Роб Браун (Bobby), Джереми Люк (Danny), Пол Бен-Виктор (Priest), Италиа Риччи (Gina), Линдси Броад (Lauren), Аманда Перез (Lisa)-Описание:
Комичная история современного ловеласа, который из каждого любовного приключения вынужден спасаться бегством. Он еще не знает, что недалек тот час, когда ему все-таки придется остепениться…-IMDB | КиноПоиск | Сэмпл |-Качество: BDRip [Don.Jon.2013.1080p.BluRay.AVC.DTS-HD.MA.5.1-PublicHD]
Формат: AVI
Видео: 720x304 (2.37:1), 23.976 fps, XviD build 73 ~1844 kbps avg, 0.35 bit/pixel
Аудио: 48 kHz, AC3 Dolby Digital, 3/2 (L,C,R,l,r) + LFE ch, ~448.00 kbps avg
-

Скриншоты

MediaInfo

General
Complete name                            : D:\Strasti_Don_Juana_2013_BDRip_by_Dalemake.avi
Format                                   : AVI
Format/Info                              : Audio Video Interleave
File size                                : 1.45 GiB
Duration                                 : 1h 30mn
Overall bit rate                         : 2 302 Kbps
Writing application                      : VirtualDubMod 1.5.10.3 | www.virtualdub-fr.org || (build 2550/release)
Writing library                          : VirtualDubMod build 2550/release
Video
ID                                       : 0
Format                                   : MPEG-4 Visual
Format profile                           : Advanced Simple@L5
Format settings, BVOP                    : 2
Format settings, QPel                    : No
Format settings, GMC                     : No warppoints
Format settings, Matrix                  : Custom
Codec ID                                 : XVID
Codec ID/Hint                            : XviD
Duration                                 : 1h 30mn
Bit rate                                 : 1 845 Kbps
Width                                    : 720 pixels
Height                                   : 304 pixels
Display aspect ratio                     : 2.35:1
Frame rate                               : 23.976 fps
Color space                              : YUV
Chroma subsampling                       : 4:2:0
Bit depth                                : 8 bits
Scan type                                : Progressive
Compression mode                         : Lossy
Bits/(Pixel*Frame)                       : 0.352
Stream size                              : 1.16 GiB (80%)
Writing library                          : XviD 73
Audio
ID                                       : 1
Format                                   : AC-3
Format/Info                              : Audio Coding 3
Mode extension                           : CM (complete main)
Format settings, Endianness              : Big
Codec ID                                 : 2000
Duration                                 : 1h 30mn
Bit rate mode                            : Constant
Bit rate                                 : 448 Kbps
Channel(s)                               : 6 channels
Channel positions                        : Front: L C R, Side: L R, LFE
Sampling rate                            : 48.0 KHz
Bit depth                                : 16 bits
Compression mode                         : Lossy
Stream size                              : 289 MiB (19%)
Alignment                                : Split accross interleaves
Interleave, duration                     : 42 ms (1.00 video frame)
Interleave, preload duration             : 500 ms
Скачать

Скачать торрент!

Как скачивать? · Что такое торрент? · Рейтинг и ограничения

Сайт не распространяет и не хранит электронные версии произведений, а лишь предоставляет доступ к создаваемому пользователями каталогу ссылок на торрент-файлы, которые содержат только списки хеш-сумм

[Профиль] [ЛС]
Показать сообщения:    
Ответить на тему

Текущее время: Сегодня 04:13

Часовой пояс: GMT + 4



Вы не можете начинать темы
Вы не можете отвечать на сообщения
Вы не можете редактировать свои сообщения
Вы не можете удалять свои сообщения
Вы не можете голосовать в опросах
Вы не можете прикреплять файлы к сообщениям
Вы не можете скачивать файлы