Ледяной / The Iceman (Ариэль Вромен / Ariel Vromen) [2012 г., США, детектив, драма, биография, BDRip 720p] MVO (R5) + MVO + DVO (НТВ+) + VO (Гаевский) + Original (Eng) + Subs (Rus, Eng)

Ответить на тему
 
Автор Сообщение

user ®

Стаж: 7 лет 7 месяцев

Сообщений: 20008

Пост Пост: #1 от 20-Дек-2013 22:00

[Цитировать]

Ледяной / The Iceman

-
-Страна: США
Студия: Bleiberg Entertainment, Millennium Films, RabbitBandini Productions
Жанр: детектив, драма, биография
Год выпуска: 2012
Продолжительность: 01:45:27--Перевод 1: Профессиональный (многоголосый закадровый) R5
Перевод 2: Профессиональный (многоголосый закадровый)
Перевод 3: Профессиональный (двухголосый закадровый) НТВ+
Перевод 4: Одноголосый закадровый Е. Гаевский
Cубтитры: русские (krilatkin, AkI3aIPuyC), английские SDH
Оригинальная аудиодорожка: английский--Режиссер: Ариэль Вромен / Ariel Vromen
В ролях: Майкл Шеннон, Вайнона Райдер, Рэй Лиотта, Крис Эванс, Дэвид Швиммер, Роберт Дави, Дэнни А. Абекейзер, Джон Вентимилья, Райан О’Нан, МакКали Миллер--Описание: Криминальный байопик проливает свет на историю о наемном убийце Ричарде Куклински, сумевшем долгое время параллельно вести две абсолютно взаимоисключающие жизни: с одной стороны он жестокий киллер, с другой — образцовый семьянин.--imdb | kinopoisk | Сэмпл--Тип релиза: BDRip 720p [The Iceman 2012 720p BluRay DD5.1 x264-TayTO]
Контейнер: MKV
Видео: MPEG-4 AVC / 4114 kbps / 1280x720 / 23,976 fps / 16:9 / High Profile 4.1
Аудио 1: Russian AC3 / 5.1 / 48 kHz / 448 kbps / 16 bits |MVO, R5|
Аудио 2: Russian AC3 / 5.1 / 48 kHz / 448 kbps / 16 bits |MVO|
Аудио 3: Russian AC3 / 2.0 / 48 kHz / 192 kbps / 16 bits |DVO, НТВ+|
Аудио 4: Russian AC3 / 5.1 / 48 kHz / 640 kbps / 16 bits |Е. Гаевский|
Аудио 5: English AC3 / 5.1 / 48 kHz / 640 kbps / 16 bits |original|
Формат субтитров: softsub [SRT]

MediaInfo

Общее
Уникальный идентификатор                 : 221898902259486684226163033111556604040 (0xA6F02C8E76A69CBB92938708C4BD4088)
Полное имя                               : G:\HD\Ледяной.2012.BDRip.(720p).mkv
Формат                                   : Matroska
Версия формата                           : Version 2
Размер файла                             : 4,88 Гбайт
Продолжительность                        : 1 ч. 45 м.
Общий поток                              : 6613 Кбит/сек
Дата кодирования                         : UTC 2013-12-20 13:35:48
Программа кодирования                    : mkvmerge v5.8.0 ('No Sleep / Pillow') built on Sep  2 2012 15:37:04
Библиотека кодирования                   : libebml v1.2.3 + libmatroska v1.3.0
Attachment                               : Yes
Видео
Идентификатор                            : 1
Формат                                   : AVC
Формат/Информация                        : Advanced Video Codec
Профиль формата                          : High@L4.1
Параметр CABAC формата                   : Да
Параметр ReFrames формата                : 9 кадров
Идентификатор кодека                     : V_MPEG4/ISO/AVC
Продолжительность                        : 1 ч. 45 м.
Битрейт                                  : 4114 Кбит/сек
Ширина                                   : 1280 пикселей
Высота                                   : 720 пикселей
Соотношение сторон                       : 16:9
Режим частоты кадров                     : Постоянный
Частота кадров                           : 23,976 кадра/сек
Цветовое пространство                    : YUV
Субдискретизация насыщенности            : 4:2:0
Битовая глубина                          : 8 бит
Тип развёртки                            : Прогрессивная
Бит/(Пиксели*Кадры)                      : 0.186
Размер потока                            : 3,03 Гбайт (62%)
Заголовок                                : The Iceman 2012 720p BluRay DD5.1 x264-TayTO
Библиотека кодирования                   : x264 core 135 r2345 f0c1c53
Настройки программы                      : cabac=1 / ref=9 / deblock=1:-3:-3 / analyse=0x3:0x133 / me=tesa / subme=11 / psy=1 / psy_rd=1.15:0.00 / mixed_ref=1 / me_range=16 / chroma_me=1 / trellis=2 / 8x8dct=1 / cqm=0 / deadzone=21,11 / fast_pskip=0 / chroma_qp_offset=-2 / threads=12 / lookahead_threads=2 / sliced_threads=0 / nr=0 / decimate=1 / interlaced=0 / bluray_compat=0 / constrained_intra=0 / bframes=9 / b_pyramid=2 / b_adapt=2 / b_bias=0 / direct=3 / weightb=1 / open_gop=0 / weightp=2 / keyint=250 / keyint_min=23 / scenecut=40 / intra_refresh=0 / rc=crf / mbtree=0 / crf=15.8 / qcomp=0.75 / qpmin=0 / qpmax=69 / qpstep=4 / ip_ratio=1.40 / pb_ratio=1.30 / aq=1:0.60
Язык                                     : English
Default                                  : Да
Forced                                   : Нет
Коэффициенты матрицы                     : BT.709
Аудио #1
Идентификатор                            : 2
Формат                                   : AC-3
Формат/Информация                        : Audio Coding 3
Расширение режима                        : CM (complete main)
Параметр Endianness формата              : Big
Идентификатор кодека                     : A_AC3
Продолжительность                        : 1 ч. 45 м.
Вид битрейта                             : Постоянный
Битрейт                                  : 448 Кбит/сек
Каналы                                   : 6 каналов
Расположение каналов                     : Front: L C R, Side: L R, LFE
Частота                                  : 48,0 КГц
Битовая глубина                          : 16 бит
Метод сжатия                             : С потерями
Размер потока                            : 338 Мбайт (7%)
Заголовок                                : MVO, R5
Язык                                     : Russian
Default                                  : Да
Forced                                   : Нет
Аудио #2
Идентификатор                            : 3
Формат                                   : AC-3
Формат/Информация                        : Audio Coding 3
Расширение режима                        : CM (complete main)
Параметр Endianness формата              : Big
Идентификатор кодека                     : A_AC3
Продолжительность                        : 1 ч. 45 м.
Вид битрейта                             : Постоянный
Битрейт                                  : 448 Кбит/сек
Каналы                                   : 6 каналов
Расположение каналов                     : Front: L C R, Side: L R, LFE
Частота                                  : 48,0 КГц
Битовая глубина                          : 16 бит
Метод сжатия                             : С потерями
Размер потока                            : 338 Мбайт (7%)
Заголовок                                : MVO
Язык                                     : Russian
Default                                  : Нет
Forced                                   : Нет
Аудио #3
Идентификатор                            : 4
Формат                                   : AC-3
Формат/Информация                        : Audio Coding 3
Расширение режима                        : CM (complete main)
Параметр Endianness формата              : Big
Идентификатор кодека                     : A_AC3
Продолжительность                        : 1 ч. 45 м.
Вид битрейта                             : Постоянный
Битрейт                                  : 192 Кбит/сек
Каналы                                   : 2 канала
Расположение каналов                     : Front: L R
Частота                                  : 48,0 КГц
Битовая глубина                          : 16 бит
Метод сжатия                             : С потерями
Размер потока                            : 145 Мбайт (3%)
Заголовок                                : DVO, НТВ+
Язык                                     : Russian
Default                                  : Нет
Forced                                   : Нет
Аудио #4
Идентификатор                            : 5
Формат                                   : AC-3
Формат/Информация                        : Audio Coding 3
Расширение режима                        : CM (complete main)
Параметр Endianness формата              : Big
Идентификатор кодека                     : A_AC3
Продолжительность                        : 1 ч. 45 м.
Вид битрейта                             : Постоянный
Битрейт                                  : 640 Кбит/сек
Каналы                                   : 6 каналов
Расположение каналов                     : Front: L C R, Side: L R, LFE
Частота                                  : 48,0 КГц
Битовая глубина                          : 16 бит
Метод сжатия                             : С потерями
Размер потока                            : 483 Мбайт (10%)
Заголовок                                : Е. Гаевский
Язык                                     : Russian
Default                                  : Нет
Forced                                   : Нет
Аудио #5
Идентификатор                            : 6
Формат                                   : AC-3
Формат/Информация                        : Audio Coding 3
Расширение режима                        : CM (complete main)
Параметр Endianness формата              : Big
Идентификатор кодека                     : A_AC3
Продолжительность                        : 1 ч. 45 м.
Вид битрейта                             : Постоянный
Битрейт                                  : 640 Кбит/сек
Каналы                                   : 6 каналов
Расположение каналов                     : Front: L C R, Side: L R, LFE
Частота                                  : 48,0 КГц
Битовая глубина                          : 16 бит
Метод сжатия                             : С потерями
Размер потока                            : 483 Мбайт (10%)
Язык                                     : English
Default                                  : Нет
Forced                                   : Нет
Текст #1
Идентификатор                            : 7
Формат                                   : UTF-8
Идентификатор кодека                     : S_TEXT/UTF8
Идентификатор кодека/Информация          : UTF-8 Plain Text
Заголовок                                : krilatkin, AkI3aIPuyC
Язык                                     : Russian
Default                                  : Нет
Forced                                   : Нет
Текст #2
Идентификатор                            : 8
Формат                                   : UTF-8
Идентификатор кодека                     : S_TEXT/UTF8
Идентификатор кодека/Информация          : UTF-8 Plain Text
Заголовок                                : SDH
Язык                                     : English
Default                                  : Нет
Forced                                   : Нет
Меню
00:00:00.000                             : :Chapter 01
00:08:11.491                             : :Chapter 02
00:17:14.575                             : :Chapter 03
00:24:57.829                             : :Chapter 04
00:35:08.272                             : :Chapter 05
00:45:57.629                             : :Chapter 06
00:56:20.377                             : :Chapter 07
01:04:05.424                             : :Chapter 08
01:13:03.587                             : :Chapter 09
01:19:42.569                             : :Chapter 10
01:31:17.054                             : :Chapter 11
01:39:52.403                             : :Chapter 12

Скриншоты


Дополнительно

Русские субтитры содержат ненормативную лексику

The Iceman 2012 720p BluRay DD5.1 x264-TayTO

MOVIE iNFO
GENRE.........: Biography, Crime, Drama, Thriller
IMDB RATING...: 7.0/10 from 5,269 users
LINK..........: http://www.imdb.com/title/tt1491044
RELEASE iNFO
RELEASE NAME..: The Iceman 2012 720p BluRay DD5.1 x264-TayTO
ENCODED DATE..: UTC 2013-08-13 13:03:17
RELEASE SIZE..: 3.60 GiB
RUNTIME.......: 1h 45mn
VIDEO CODEC...: x264, CRF, L4.1
FRAMERATE.....: 23.976 fps
BITRATE.......: 4 152 Kbps
RESOLUTION....: 1280x720
AUDIO.........: English AC3 5.1@640 Kbps
CHAPTERS......: Yes
SUBTITLES.....: English,Spanish
SOURCE........: The Iceman 2012 1080p Blu-ray AVC TrueHD 5.1-HDWinG (Thx riverhd!)
CONTACT.......: TayTO.Group@gmail.com
Encoder.......: Hoangmai2004@TayTO
x264 iNFO
x264 [info]: frame I:1101  Avg QP:12.22  size:107649
x264 [info]: frame P:30868 Avg QP:13.81  size: 45155
x264 [info]: frame B:119735 Avg QP:16.34  size: 15422
x264 [info]: consecutive B-frames:  1.6%  2.8%  5.0% 25.0% 12.0% 24.2%  7.6% 16.5%  3.2%  2.2%
encoded 151704 frames, 4.10 fps, 4246.84 kb/s
Source | TayTO


Скачать

Скачать торрент!

Как скачивать? · Что такое торрент? · Рейтинг и ограничения

Сайт не распространяет и не хранит электронные версии произведений, а лишь предоставляет доступ к создаваемому пользователями каталогу ссылок на торрент-файлы, которые содержат только списки хеш-сумм

[Профиль] [ЛС]
Показать сообщения:    
Ответить на тему

Текущее время: Сегодня 00:28

Часовой пояс: GMT + 4



Вы не можете начинать темы
Вы не можете отвечать на сообщения
Вы не можете редактировать свои сообщения
Вы не можете удалять свои сообщения
Вы не можете голосовать в опросах
Вы не можете прикреплять файлы к сообщениям
Вы не можете скачивать файлы