Люди-тени / Дверь / Shadow people / The Door (Мэттью Арнольд / Matthew Arnold) [2013, США, Мистика, триллер, HDRip] MVO + Original Eng

Ответить на тему
 
Автор Сообщение

user ®

Стаж: 7 лет 7 месяцев

Сообщений: 20008

Пост Пост: #1 от 20-Дек-2013 18:50

[Цитировать]

Люди-тени / Дверь / Shadow people / The Door- Страна: США
Жанр: Мистика, триллер
Год выпуска: 2013
Продолжительность: 01:28:56-Перевод: Профессиональный (многоголосый закадровый)
Cубтитры: Hет
Оригинальная аудиодорожка: Aнглийский-Режиссер: Мэттью Арнольд / Matthew Arnold
В ролях: Даллас Робертс, Элисон Иствуд, Энн Дудек, Мария Боннер, Мэтти Липтак, Кристофер Берри, Джонатан Барон, Тони Шина, Ричи Монтгомери, Марко Ст. Джон-Описание: Ведущий радиошоу Чарли Кроу узнает в прямом эфире от одного из радиослушателей о неких Людях Теней, которые преследуют своих жертв и стали причиной уже многих смертей. Чарли берется расследовать так называемые «встречи» с таинственными созданиями и вскоре сам начинает ИХ видеть…-Доп. информация: Фильм основан на реальном случае загадочных смертей и вирусном ролике "Изучение сна GR16-1971"
Фильм содержит документальные съёмки и интервью с реальными людьми-Сэмпл: http://sendfile.su/912175-Качество видео: HDRip
Формат видео: AVI
Видео: XVID, 704x288, 23.98fps, 1742Kbps
Аудио 1: AC3 48000Hz, 2ch, 224Kbps
Аудио 2: AC3, 48000Hz, 2ch, 224Kbps

MediaInfo

Полное имя : D:\3.Торренты\The.Door.2013.P.HDRip.avi
Формат : AVI
Формат/Информация : Audio Video Interleave
Размер файла : 1,37 Гбайт
Продолжительность : 1 ч. 28 м.
Общий поток : 2204 Кбит/сек
Программа кодирования : VirtualDubModRus 1.5.10.2 (build 2542/release)
Библиотека кодирования : VirtualDubMod build 2542/release
Видео
Идентификатор : 0
Формат : MPEG-4 Visual
Профиль формата : Advanced Simple@L5
Параметр BVOP формата : 1
Параметр QPel формата : Нет
Параметр GMC формата : Без точки перехода
Параметр матрицы формата : Выборочная
Идентификатор кодека : XVID
Идентификатор кодека/Подсказка : XviD
Продолжительность : 1 ч. 28 м.
Битрейт : 1742 Кбит/сек
Ширина : 704 пикселя
Высота : 288 пикселей
Соотношение сторон : 2,40:1
Частота кадров : 23,976 кадра/сек
Цветовое пространство : YUV
Субдискретизация насыщенности : 4:2:0
Битовая глубина : 8 бит
Тип развёртки : Прогрессивная
Метод сжатия : С потерями
Бит/(Пиксели*Кадры) : 0.358
Размер потока : 1,08 Гбайт (79%)
Библиотека кодирования : XviD 1.2.1 (UTC 2008-12-04)
Аудио #1
Идентификатор : 1
Формат : AC-3
Формат/Информация : Audio Coding 3
Расширение режима : CM (complete main)
Параметр Endianness формата : Big
Идентификатор кодека : 2000
Продолжительность : 1 ч. 28 м.
Вид битрейта : Постоянный
Битрейт : 224 Кбит/сек
Каналы : 2 канала
Расположение каналов : Front: L R
Частота : 48,0 КГц
Битовая глубина : 16 бит
Метод сжатия : С потерями
Размер потока : 142 Мбайт (10%)
Выравнивание : Соединение по промежуткам
Продолжительность промежутка : 42 мс. (1,00 видеокадр)
Время предзагрузки промежутка : 512 мс.
Аудио #2
Идентификатор : 2
Формат : AC-3
Формат/Информация : Audio Coding 3
Расширение режима : CM (complete main)
Параметр Endianness формата : Big
Идентификатор кодека : 2000
Продолжительность : 1 ч. 28 м.
Вид битрейта : Постоянный
Битрейт : 224 Кбит/сек
Каналы : 2 канала
Расположение каналов : Front: L R
Частота : 48,0 КГц
Битовая глубина : 16 бит
Метод сжатия : С потерями
Размер потока : 142 Мбайт (10%)
Выравнивание : Разделение по промежуткам
Продолжительность промежутка : 42 мс. (1,00 видеокадр)
Время предзагрузки промежутка : 500 мс.

Скриншот c названием фильма

Скриншоты

Скачать

Скачать торрент!

Как скачивать? · Что такое торрент? · Рейтинг и ограничения

Сайт не распространяет и не хранит электронные версии произведений, а лишь предоставляет доступ к создаваемому пользователями каталогу ссылок на торрент-файлы, которые содержат только списки хеш-сумм

[Профиль] [ЛС]
Показать сообщения:    
Ответить на тему

Текущее время: Сегодня 22:21

Часовой пояс: GMT + 4



Вы не можете начинать темы
Вы не можете отвечать на сообщения
Вы не можете редактировать свои сообщения
Вы не можете удалять свои сообщения
Вы не можете голосовать в опросах
Вы не можете прикреплять файлы к сообщениям
Вы не можете скачивать файлы