Закат мужской империи / Le declin de l\'empire masculin (Анджело Чанчи Angelo Cianci) [2013, Франция, комедия, драма, SATRip] MVO (ТПО "Ред Медиа")

Ответить на тему
 
Автор Сообщение

user ®

Стаж: 7 лет 7 месяцев

Сообщений: 20008

Пост Пост: #1 от 20-Дек-2013 10:45

[Цитировать]

Закат мужской империи / Le declin de l'empire masculin
Страна: Франция
Жанр: комедия, драма
Год выпуска: 2013
Продолжительность: 01:32:18
Перевод: Профессиональный (многоголосый закадровый) ТПО "Ред Медиа"
Cубтитры: нет
Режиссер: Анджело Чанчи Angelo Cianci
В ролях: Грегори Деранже, Жеральдин Пайя, Ариэль Семенофф, Николя Бриде, Андре Умански, Седрик Тюфье, Талина Боячи, Джайя Кальтаджироне, Эстель Ларрива, Вирджиния Андерсон
Описание: В одной из обычных французских семей, где муж дает подросткам уроки игры на пианино, но не получает за это достаточно денег, а жена успевает зарабатывать, заниматься домом и двумя детьми - произошли серьезные перемены. Камилле предложили ответственную должность в Национальном музее естествознания. Теперь все домашние хлопоты и воспитание дочерей легли на плечи впечатлительного пианиста и неуравновешенных родственников. Вдобавок ко всему, во время семейного посещения музея, Симон приметил забавный экспонат пещерного человека. Теперь неандерталец стал появляться рядом с ним в самых неожиданных местах, в основном рыча или круша что-нибудь...
Доп. информация: За фильм спасибо alenavova
Качество видео: SATRip
Формат видео: AVI
Видео: 688x368 (1.87:1), 25 fps, XviD build 47 ~2076 kbps avg, 0.33 bit/pixel
Аудио: 48 kHz, AC3 Dolby Digital, 2/0 (L,R) ch, ~192 kbps

MediaInfo

Закат мужской империи - Le declin de l'empire masculin [by alenavova].avi
Format : AVI
Format/Info : Audio Video Interleave
File size : 1.47 GiB
Duration : 1h 32mn
Overall bit rate : 2 279 Kbps
Movie name : Закат мужской империи - Le declin de l'empire masculin [by alenavova]
Director : Rip by alenavova
Writing application : VirtualDubModRus 1.5.10.2 (build 2542/release)
Copyright : Edich2
Comment :
Video
ID : 0
Format : MPEG-4 Visual
Format profile : Advanced Simple@L5
Format settings, BVOP : 1
Format settings, QPel : No
Format settings, GMC : No warppoints
Format settings, Matrix : Default (MPEG)
Codec ID : XVID
Codec ID/Hint : XviD
Duration : 1h 32mn
Bit rate : 2 077 Kbps
Width : 688 pixels
Height : 368 pixels
Display aspect ratio : 1.85:1
Frame rate : 25.000 fps
Color space : YUV
Chroma subsampling : 4:2:0
Bit depth : 8 bits
Scan type : Progressive
Compression mode : Lossy
Bits/(Pixel*Frame) : 0.328
Stream size : 1.34 GiB (91%)
Writing library : XviD 1.2.0.dev47 (UTC 2006-11-01)
Audio
ID : 1
Format : AC-3
Format/Info : Audio Coding 3
Mode extension : CM (complete main)
Format settings, Endianness : Big
Codec ID : 2000
Duration : 1h 32mn
Bit rate mode : Constant
Bit rate : 192 Kbps
Channel count : 2 channels
Channel positions : Front: L R
Sampling rate : 48.0 KHz
Bit depth : 16 bits
Compression mode : Lossy
Stream size : 127 MiB (8%)
Alignment : Split accross interleaves
Interleave, duration : 40 ms (1.00 video frame)
Interleave, preload duration : 500 ms

Скриншоты


Скачать

Скачать торрент!

Как скачивать? · Что такое торрент? · Рейтинг и ограничения

Сайт не распространяет и не хранит электронные версии произведений, а лишь предоставляет доступ к создаваемому пользователями каталогу ссылок на торрент-файлы, которые содержат только списки хеш-сумм

[Профиль] [ЛС]
Показать сообщения:    
Ответить на тему

Текущее время: Сегодня 00:11

Часовой пояс: GMT + 4



Вы не можете начинать темы
Вы не можете отвечать на сообщения
Вы не можете редактировать свои сообщения
Вы не можете удалять свои сообщения
Вы не можете голосовать в опросах
Вы не можете прикреплять файлы к сообщениям
Вы не можете скачивать файлы