Рэд 2 / Red 2 (Дин Паризо / Dean Parisot) [2013, США, Боевик, комедия, криминал, BDRip-AVC] Dub (BD CEE) + Original (Eng) + Sub (rus., eng.)

Ответить на тему
 
Автор Сообщение

user ®

Стаж: 7 лет 7 месяцев

Сообщений: 20008

Пост Пост: #1 от 20-Дек-2013 01:15

[Цитировать]

Рэд 2 / Red 2
Страна: США / Summit Entertainment, Di Bonaventura Pictures, DC Entertainment, Etalon film
Жанр: Боевик, комедия, криминал
Год выпуска: 2013
Продолжительность: 01:55:48-Перевод: Профессиональный (дублированный) лицензия
Cубтитры: русские, английские (Full + SDH + Colored)
Формат субтитров: softsub (SRT)
Оригинальная аудиодорожка: английский-Режиссер: Дин Паризо / Dean Parisot
В ролях: Брюс Уиллис, Джон Малкович, Мэри-Луиз Паркер, Бён Хон Ли, Хелен Миррен, Энтони Хопкинс, Кэтрин Зета-Джонс, Дэвид Тьюлис, Нил МакДонаф, Ли Асквит-Коу
Описание: Компашка пенсионеров снова в сборе! Стареющий киллер решает устроить проблемы своему бывшему боссу, так как тот стал угрозой для его семьи, не подозревающей о роде деятельности главы семейства. Не все идет по плану и остается только один выход – бегство с сыном...-
Релиз от:
Автор рипа: potroks-Качество видео: BDRip-AVC [RED_2_2013_REMUX_HDCLUB]
Формат видео: MKV
Видео: х.264, 1032x430 (2,40:1), 23,976 fps, 1933 Кbps, 0.182 bit/pixel
Аудио#1: 48 kHz, AC3 Dolby Digital, 3/2 (L,C,R,l,r) + LFE ch, 384.00 kbps | RUS
Аудио#2: 48 kHz, AC3 Dolby Digital, 3/2 (L,C,R,l,r) + LFE ch, 384.00 kbps | ENG

MediaInfo

Общее
Уникальный идентификатор : 204488336989594688525626802702802189298 (0x99D70569FEFAE1B2853405E12CDB7BF2)
Полное имя : RED.2.2013.DUAL.BDRip.x264.-HELLYWOOD.mkv
Формат : Matroska
Версия формата : Version 4 / Version 2
Размер файла : 2,19 Гбайт
Продолжительность : 1 ч. 55 м.
Общий поток : 2702 Кбит/сек
Название фильма : HELLYWOOD - rip by potroks
Дата кодирования : UTC 2013-12-19 18:06:45
Программа кодирования : mkvmerge v5.9.0 ('On The Loose') built on Dec 15 2012 16:39:58
Библиотека кодирования : libebml v1.3.0 + libmatroska v1.4.0
Видео
Идентификатор : 1
Формат : AVC
Формат/Информация : Advanced Video Codec
Профиль формата : High@L4.1
Параметр CABAC формата : Да
Параметр ReFrames формата : 10 кадров
Идентификатор кодека : V_MPEG4/ISO/AVC
Продолжительность : 1 ч. 55 м.
Битрейт : 1933 Кбит/сек
Ширина : 1032 пикселя
Высота : 430 пикселей
Соотношение сторон : 2,40:1
Режим частоты кадров : Постоянный
Частота кадров : 23,976 кадра/сек
Цветовое пространство : YUV
Субдискретизация насыщенности : 4:2:0
Битовая глубина : 8 бит
Тип развёртки : Прогрессивная
Бит/(Пиксели*Кадры) : 0.182
Размер потока : 1,52 Гбайт (70%)
Заголовок : Red 2
Библиотека кодирования : x264 core 130 r2273 b3065e6
Настройки программы : cabac=1 / ref=10 / deblock=1:-2:-2 / analyse=0x3:0x133 / me=umh / subme=11 / psy=1 / psy_rd=1.06:0.00 / mixed_ref=1 / me_range=32 / chroma_me=1 / trellis=2 / 8x8dct=1 / cqm=0 / deadzone=21,11 / fast_pskip=0 / chroma_qp_offset=-2 / threads=9 / lookahead_threads=6 / sliced_threads=0 / nr=0 / decimate=0 / interlaced=0 / bluray_compat=0 / constrained_intra=0 / bframes=11 / b_pyramid=2 / b_adapt=2 / b_bias=0 / direct=3 / weightb=1 / open_gop=0 / weightp=2 / keyint=240 / keyint_min=23 / scenecut=40 / intra_refresh=0 / rc_lookahead=60 / rc=2pass / mbtree=0 / bitrate=1933 / ratetol=1.0 / qcomp=0.70 / qpmin=0 / qpmax=69 / qpstep=4 / cplxblur=20.0 / qblur=0.5 / vbv_maxrate=20000 / vbv_bufsize=20000 / nal_hrd=none / ip_ratio=1.35 / pb_ratio=1.25 / aq=1:0.80
Язык : English
Default : Да
Forced : Нет
Аудио #1
Идентификатор : 2
Формат : AC-3
Формат/Информация : Audio Coding 3
Расширение режима : CM (complete main)
Параметр Endianness формата : Big
Идентификатор кодека : A_AC3
Продолжительность : 1 ч. 55 м.
Вид битрейта : Постоянный
Битрейт : 384 Кбит/сек
Каналы : 6 каналов
Расположение каналов : Front: L C R, Side: L R, LFE
Частота : 48,0 КГц
Битовая глубина : 16 бит
Метод сжатия : С потерями
Размер потока : 318 Мбайт (14%)
Заголовок : Dub | DD 5.1 @ 384 kbps - BD CEE
Язык : Russian
Default : Да
Forced : Да
Аудио #2
Идентификатор : 3
Формат : AC-3
Формат/Информация : Audio Coding 3
Расширение режима : CM (complete main)
Параметр Endianness формата : Big
Идентификатор кодека : A_AC3
Продолжительность : 1 ч. 55 м.
Вид битрейта : Постоянный
Битрейт : 384 Кбит/сек
Каналы : 6 каналов
Расположение каналов : Front: L C R, Side: L R, LFE
Частота : 48,0 КГц
Битовая глубина : 16 бит
Метод сжатия : С потерями
Размер потока : 318 Мбайт (14%)
Заголовок : Original | DD 5.1 @ 384 kibps
Язык : English
Default : Нет
Forced : Нет
Текст #1
Идентификатор : 4
Формат : UTF-8
Идентификатор кодека : S_TEXT/UTF8
Идентификатор кодека/Информация : UTF-8 Plain Text
Язык : Russian
Default : Нет
Forced : Нет
Текст #2
Идентификатор : 5
Формат : UTF-8
Идентификатор кодека : S_TEXT/UTF8
Идентификатор кодека/Информация : UTF-8 Plain Text
Заголовок : Colored
Язык : English
Default : Нет
Forced : Нет
Текст #3
Идентификатор : 6
Формат : UTF-8
Идентификатор кодека : S_TEXT/UTF8
Идентификатор кодека/Информация : UTF-8 Plain Text
Заголовок : Full
Язык : English
Default : Нет
Forced : Нет
Текст #4
Идентификатор : 7
Формат : UTF-8
Идентификатор кодека : S_TEXT/UTF8
Идентификатор кодека/Информация : UTF-8 Plain Text
Заголовок : SDH
Язык : English
Default : Нет
Forced : Нет
Меню
00:00:00.000 : en:(01)00:00:00:000
00:08:20.093 : en:(02)00:08:20:093
00:14:50.192 : en:(03)00:14:50:192
00:21:19.497 : en:(04)00:21:19:497
00:28:21.336 : en:(05)00:28:21:336
00:39:39.888 : en:(06)00:39:39:888
00:47:13.424 : en:(07)00:47:13:424
00:54:21.560 : en:(08)00:54:21:560
01:00:10.325 : en:(09)01:00:10:325
01:07:36.021 : en:(10)01:07:36:021
01:11:37.804 : en:(11)01:11:37:804
01:18:41.769 : en:(12)01:18:41:769
01:23:05.282 : en:(13)01:23:05:282
01:27:50.067 : en:(14)01:27:50:067
01:35:41.454 : en:(15)01:35:41:454
01:41:33.306 : en:(16)01:41:33:306
01:45:13.025 : en:(17)01:45:13:025
01:46:48.913 : en:(18)01:46:48:913
01:55:02.372 : en:(19)01:55:02:372

log@x.264

x264 [info]: frame I:1796 Avg QP:17.04 size: 68203
x264 [info]: frame P:39674 Avg QP:20.42 size: 18378
x264 [info]: frame B:125121 Avg QP:21.98 size: 6602
x264 [info]: consecutive B-frames: 3.4% 3.6% 16.6% 15.3% 15.9% 34.7% 5.7% 1.5% 1.2% 0.8% 0.7% 0.4%
x264 [info]: mb I I16..4: 5.8% 75.3% 18.9%
x264 [info]: mb P I16..4: 0.7% 6.6% 1.3% P16..4: 32.2% 35.6% 12.4% 1.9% 0.2% skip: 9.2%
x264 [info]: mb B I16..4: 0.0% 0.6% 0.1% B16..8: 38.1% 18.8% 3.1% direct: 4.2% skip:35.1% L0:44.6% L1:46.1% BI: 9.2%
x264 [info]: 8x8 transform intra:76.8% inter:57.9%
x264 [info]: direct mvs spatial:98.0% temporal:2.0%
x264 [info]: coded y,uvDC,uvAC intra: 89.4% 86.2% 67.0% inter: 23.2% 18.9% 8.1%
x264 [info]: i16 v,h,dc,p: 36% 20% 6% 38%
x264 [info]: i8 v,h,dc,ddl,ddr,vr,hd,vl,hu: 8% 9% 5% 11% 15% 14% 14% 12% 13%
x264 [info]: i4 v,h,dc,ddl,ddr,vr,hd,vl,hu: 10% 10% 4% 9% 15% 14% 14% 11% 13%
x264 [info]: i8c dc,h,v,p: 40% 24% 18% 18%
x264 [info]: Weighted P-Frames: Y:2.8% UV:1.5%
x264 [info]: ref P L0: 50.7% 10.5% 17.5% 5.9% 4.8% 3.2% 2.9% 1.5% 1.5% 1.3% 0.3% 0.0%
x264 [info]: ref B L0: 69.7% 14.0% 6.5% 3.1% 2.7% 1.7% 1.6% 0.6% 0.2%
x264 [info]: ref B L1: 91.2% 8.8%
x264 [info]: kb/s:1931.65

Скриншоты

Скачать

Скачать торрент!

Как скачивать? · Что такое торрент? · Рейтинг и ограничения

Сайт не распространяет и не хранит электронные версии произведений, а лишь предоставляет доступ к создаваемому пользователями каталогу ссылок на торрент-файлы, которые содержат только списки хеш-сумм

[Профиль] [ЛС]
Показать сообщения:    
Ответить на тему

Текущее время: Сегодня 21:24

Часовой пояс: GMT + 4



Вы не можете начинать темы
Вы не можете отвечать на сообщения
Вы не можете редактировать свои сообщения
Вы не можете удалять свои сообщения
Вы не можете голосовать в опросах
Вы не можете прикреплять файлы к сообщениям
Вы не можете скачивать файлы