Ниндзя 2 / Ninja: Shadow of a Tear (Айзек Флорентайн / Isaac Florentine) [2013, Таиланд, США, боевик, триллер, криминал, WEB-DLRip] DVO [Студия "Paradox"]

Ответить на тему
 
Автор Сообщение

user ®

Стаж: 7 лет 7 месяцев

Сообщений: 20008

Пост Пост: #1 от 20-Дек-2013 01:15

[Цитировать]

Ниндзя 2 / Ninja: Shadow of a Tear
Страна: Таиланд, США / Swingin' Productions LLC
Жанр: боевик, триллер, криминал
Год выпуска: 2013
Продолжительность: 01:34:41
Перевод: Любительский (двухголосый закадровый) [Студия "Paradox"]
Cубтитры: нет
Оригинальная аудиодорожка: нет
Режиссер: Айзек Флорентайн / Isaac Florentine
В ролях: Скотт Эдкинс, Витхая Пансрингарм, Кейн Косуги, Тим Ман, Чарли Рюдпоканон, Рон Смуренбург, Мика Хиджии, Сюн Сугата, Эрика Нагаминэ, Патрик Тэнг
Описание: Кейси Боумен, наконец, начал оседлую жизнь. Он в счастливом браке с Намико (которая беременна первенцем), живёт в Японии и преподаёт в додзё Кога. Однажды на Кейси, отправившегося за подарком для жены, нападает пара отморозков. Он не придаёт этому значения, считая всё обычным грабежом. Но когда той же ночью жестоко убивают Намико, мир Кейси рушится на части. Поражённый горем и пылающий жаждой мести, Кейси выслеживает двух бандитов, пытавшихся его ограбить, но те не могут предоставить ему ключи к разгадке убийства его жены. Поэтому Кейси отправляется в Таиланд, в додзё близкого друга. Горе и гнев берут над ним верх, и он «срывается» во время спарринга с учениками. Когда одного из учеников убивают так же, как и Намико, Кейси, наконец, находит улики, которые ему нужны для того, чтобы выследить убийцу своей жены и разгадать тайну, хранящуюся в глубине бирманских джунглей.
Сэмпл: http://multi-up.com/933892
Качество видео: WEB-DLRip
Формат видео: AVI
Видео: 720x400 (1.80:1), 23.976 fps, XviD build 50 ~1864 kbps avg, 0.27 bit/pixel
Аудио: 48 kHz, AC3 Dolby Digital, 2/0 (L,R) ch, ~192 kbps

MediaInfo

Общее
Полное имя : D:\Ninja.2.2013.L2.WEB-DLRip.avi
Формат : AVI
Формат/Информация : Audio Video Interleave
Размер файла : 1,37 Гбайт
Продолжительность : 1 ч. 34 м.
Общий поток : 2066 Кбит/сек
Программа кодирования : VirtualDubMod 1.5.10.2 (build 2542/release)
Библиотека кодирования : VirtualDubMod build 2542/release
Видео
Идентификатор : 0
Формат : MPEG-4 Visual
Профиль формата : Advanced Simple@L5
Параметр BVOP формата : 1
Параметр QPel формата : Нет
Параметр GMC формата : Без точки перехода
Параметр матрицы формата : Default (H.263)
Идентификатор кодека : XVID
Идентификатор кодека/Подсказка : XviD
Продолжительность : 1 ч. 34 м.
Битрейт : 1783 Кбит/сек
Ширина : 720 пикселей
Высота : 400 пикселей
Соотношение сторон : 16:9
Частота кадров : 23,976 кадра/сек
Цветовое пространство : YUV
Субдискретизация насыщенности : 4:2:0
Битовая глубина : 8 бит
Тип развёртки : Прогрессивная
Метод сжатия : С потерями
Бит/(Пиксели*Кадры) : 0.258
Размер потока : 1,18 Гбайт (86%)
Библиотека кодирования : XviD 1.2.1 (UTC 2008-12-04)
Аудио
Идентификатор : 1
Формат : AC-3
Формат/Информация : Audio Coding 3
Расширение режима : CM (complete main)
Параметр Endianness формата : Big
Идентификатор кодека : 2000
Продолжительность : 1 ч. 34 м.
Вид битрейта : Постоянный
Битрейт : 192 Кбит/сек
Каналы : 2 канала
Расположение каналов : Front: L R
Частота : 48,0 КГц
Битовая глубина : 16 бит
Метод сжатия : С потерями
Размер потока : 130 Мбайт (9%)
Выравнивание : Разделение по промежуткам

Скриншоты



Скриншот c названием фильма

Скачать

Скачать торрент!

Как скачивать? · Что такое торрент? · Рейтинг и ограничения

Сайт не распространяет и не хранит электронные версии произведений, а лишь предоставляет доступ к создаваемому пользователями каталогу ссылок на торрент-файлы, которые содержат только списки хеш-сумм

[Профиль] [ЛС]
Показать сообщения:    
Ответить на тему

Текущее время: Сегодня 21:54

Часовой пояс: GMT + 4



Вы не можете начинать темы
Вы не можете отвечать на сообщения
Вы не можете редактировать свои сообщения
Вы не можете удалять свои сообщения
Вы не можете голосовать в опросах
Вы не можете прикреплять файлы к сообщениям
Вы не можете скачивать файлы