Убойный уикенд / Cottage Country (Питер Веллингтон / Peter Wellington) [2013, боевик, комедия, криминал, HDRip] (Dub)

Ответить на тему
 
Автор Сообщение

user ®

Стаж: 7 лет 7 месяцев

Сообщений: 20008

Пост Пост: #1 от 19-Дек-2013 10:50

[Цитировать]

Убойный уикенд / Cottage Country
Страна: Канада / Whizbang Films
Жанр: боевик, комедия, криминал
Год выпуска: 2013
Продолжительность: 01:31:21
Перевод: Профессиональный (дублированный) [лицензия]
Cубтитры: нет
Оригинальная аудиодорожка: нет
Режиссер: Питер Веллингтон / Peter Wellington
В ролях: Тайлер Лабайн, Малин Акерман, Джим Аннан, Бенджамин Эйрс, Сабрина Грдевич, Кристианна Хауфлер, Дэн Петронижевич, Люси Панч, Рэнди Браун, Уэйн В. Джонсон
Описание: Серж, в прошлом известный актер, уже три года живет в одиночестве на Иль-де-Ре. Его бывший коллега Готье, карьера которого в разгаре, предлагает ему роль Альцеста в пьесе Мольера «Мизантроп». Персонаж пьесы и его исполнитель идеально сочетаются друг с другом. Но в реальном мире скрыто много различных ловушек.
Сэмпл: http://www.multiupload.nl/TYGIQ2ZCS4
Качество видео: HDRip
Формат видео: AVI
Видео: 720x384 (1.88:1), 24 fps, XviD build 50 ~1892 kbps avg, 0.28 bit/pixel
Аудио: 48 kHz, AC3 Dolby Digital, 3/2 (L,C,R,l,r) + LFE ch, ~384 kbps)

MediaInfo

Общее
Полное имя : D:\Cottage Country.2013.D.HDRip..avi
Формат : AVI
Формат/Информация : Audio Video Interleave
Размер файла : 1,46 Гбайт
Продолжительность : 1 ч. 31 м.
Общий поток : 2286 Кбит/сек
Программа кодирования : VirtualDubMod 1.5.10.2 (build 2540/release)
Библиотека кодирования : VirtualDubMod build 2540/release
Видео
Идентификатор : 0
Формат : MPEG-4 Visual
Профиль формата : Advanced Simple@L5
Параметр BVOP формата : 2
Параметр QPel формата : Нет
Параметр GMC формата : Без точки перехода
Параметр матрицы формата : Default (MPEG)
Идентификатор кодека : XVID
Идентификатор кодека/Подсказка : XviD
Продолжительность : 1 ч. 31 м.
Битрейт : 1803 Кбит/сек
Ширина : 720 пикселей
Высота : 384 пикселя
Соотношение сторон : 1,85:1
Частота кадров : 24,000 кадра/сек
Цветовое пространство : YUV
Субдискретизация насыщенности : 4:2:0
Битовая глубина : 8 бит
Тип развёртки : Прогрессивная
Метод сжатия : С потерями
Бит/(Пиксели*Кадры) : 0.272
Размер потока : 1,15 Гбайт (79%)
Библиотека кодирования : XviD 1.2.1 (UTC 2008-12-04)
Аудио
Идентификатор : 1
Формат : AC-3
Формат/Информация : Audio Coding 3
Расширение режима : CM (complete main)
Параметр Endianness формата : Big
Идентификатор кодека : 2000
Продолжительность : 1 ч. 31 м.
Вид битрейта : Постоянный
Битрейт : 384 Кбит/сек
Каналы : 6 каналов
Расположение каналов : Front: L C R, Side: L R, LFE
Частота : 48,0 КГц
Битовая глубина : 16 бит
Метод сжатия : С потерями
Размер потока : 251 Мбайт (17%)
Выравнивание : Разделение по промежуткам

Скриншот c названием фильма

Скриншоты



Скачать

Скачать торрент!

Как скачивать? · Что такое торрент? · Рейтинг и ограничения

Сайт не распространяет и не хранит электронные версии произведений, а лишь предоставляет доступ к создаваемому пользователями каталогу ссылок на торрент-файлы, которые содержат только списки хеш-сумм

[Профиль] [ЛС]
Показать сообщения:    
Ответить на тему

Текущее время: Сегодня 08:25

Часовой пояс: GMT + 4



Вы не можете начинать темы
Вы не можете отвечать на сообщения
Вы не можете редактировать свои сообщения
Вы не можете удалять свои сообщения
Вы не можете голосовать в опросах
Вы не можете прикреплять файлы к сообщениям
Вы не можете скачивать файлы