Предполагаемый убийца / Assumed Killer / Assumed Memories (Бернард Зальцманн / Bernard Salzmann) [2013, США, триллер, DVB] DVO (НТВ+)

Ответить на тему
 
Автор Сообщение

user ®

Стаж: 7 лет 7 месяцев

Сообщений: 20008

Пост Пост: #1 от 19-Дек-2013 10:50

[Цитировать]

Предполагаемый убийца
Assumed Killer / Assumed Memories- Страна: США
Жанр: триллер
Год выпуска: 2013
Продолжительность: 01:23:16Перевод: Профессиональный (двухголосый закадровый) (НТВ+, перевод Елены Колобовой,
текст читают Елена Солодилина, Игорь Тарадайкин)
Cубтитры: нет
Режиссер: Бернард Зальцманн / Bernard Salzmann
В ролях: Каспер Ван Дин / Casper Van Dien (Sam Morrow), Барби Кастро / Barbie Castro (Daria Valdez Morrow), Арманд Ассанте / Armand Assante (Aaron Banfield), Эрик Робертс / Eric Roberts (Taxi Driver), Кристи Линн Смит / Christie Lynn Smith (Sara)
Описание: Криминальный репортёр Дарья Вальдес Морроу попадает в автокатастрофу. Когда она приходит в себя, то обнаруживает, что потеряла память. В состоянии амнезии женщине начинает казаться, что её муж - серийный убийца... (анонс канала "Премьера")
Доп. информация: Запись со спутника (телеканал "Премьера").
http://www.imdb.com/title/tt2321195/
Сэмпл: http://multi-up.com/933559
Качество видео: DVB
Формат видео: MPEG-PS [url=http://***/forum/viewtopic.php?p=58098458#58098458](См. при проблемах с просмотром видео)[/url]
Видео: MPEG Video 2, 720x576@1024x576 (16:9), 25 fps, ~1884 kbps avg, 0.182 bit/pixel
Аудио: 48 kHz, MPEG Audio 2, 2 ch, ~192.00 kbps avg

MediaInfo

Полное имя : H:\My Torrents\[apreder]Assumed_Killer(2013)DVB.mpgФормат : MPEG-PSРазмер файла : 1,23 ГбайтПродолжительность : 1 ч. 23 м.Режим общего битрейта : ПеременныйОбщий поток : 2118 Кбит/сек
ВидеоИдентификатор : 224 (0xE0)Формат : MPEG VideoВерсия формата : Version 2Профиль формата : Main@MainПараметр BVOP формата : ДаПараметр матрицы формата : ВыборочнаяПараметр GOP формата : VariableПродолжительность : 1 ч. 23 м.Вид битрейта : ПеременныйБитрейт : 1884 Кбит/секШирина : 720 пикселейВысота : 576 пикселейСоотношение сторон : 16:9Частота кадров : 25,000 кадров/секСтандарт вещания : PALЦветовое пространство : YUVСубдискретизация насыщенности : 4:2:0Битовая глубина : 8 битТип развёртки : ЧересстрочнаяПорядок развёртки : Верхнее поле первоеМетод сжатия : С потерямиБит/(Пиксели*Кадры) : 0.182Временной код первого кадра : 00:00:00:00Оригинал временного кода : Group of pictures headerРазмер потока : 1,10 Гбайт (89%)
АудиоИдентификатор : 192 (0xC0)Формат : MPEG AudioВерсия формата : Version 1Профиль формата : Layer 2Продолжительность : 1 ч. 23 м.Вид битрейта : ПостоянныйБитрейт : 192 Кбит/секКаналы : 2 каналаЧастота : 48,0 КГцМетод сжатия : С потерямиРазмер потока : 114 Мбайт (9%)

Скриншот c названием фильма

Скриншоты


Резервные скриншоты


-1'108/1'090√
Скачать

Скачать торрент!

Как скачивать? · Что такое торрент? · Рейтинг и ограничения

Сайт не распространяет и не хранит электронные версии произведений, а лишь предоставляет доступ к создаваемому пользователями каталогу ссылок на торрент-файлы, которые содержат только списки хеш-сумм

[Профиль] [ЛС]
Показать сообщения:    
Ответить на тему

Текущее время: Сегодня 12:55

Часовой пояс: GMT + 4



Вы не можете начинать темы
Вы не можете отвечать на сообщения
Вы не можете редактировать свои сообщения
Вы не можете удалять свои сообщения
Вы не можете голосовать в опросах
Вы не можете прикреплять файлы к сообщениям
Вы не можете скачивать файлы