В осаде / Suddenly (Уве Болл / Uwe Boll) [2013, Канада, США, Триллер, HDRip] MVO

Ответить на тему
 
Автор Сообщение

user ®

Стаж: 7 лет 7 месяцев

Сообщений: 20008

Пост Пост: #1 от 19-Дек-2013 10:50

[Цитировать]

В осаде / Suddenly
Страна: Канада, США
Жанр: Триллер
Год выпуска: 2013
Продолжительность: 01:30:09
Перевод: Профессиональный (многоголосый закадровый) Лицензия
Cубтитры: нет
Оригинальная аудиодорожка: нет
Режиссер: Уве Болл / Uwe Boll
В ролях: Рэй Лиотта, Эрин Карплак, Доминик Пёрселл, Дон Маккэй, Коул Кокер, Тайрон Лейтсо, Майкл Паре, Стив Бачич, Гари Чок, Брендан Флетче
Описание: Четверо убийц во главе с Бароном, представляются агентами секретной службы, чтобы реквизировать дом вдовы Эллен. Ее дом играет роль снайперской позиции в их плане покушения на президента во время его визита в маленький городок под названием Садденли. Убийцы провели всех местных полицейских, кроме одного — пьяницы Тодда, который служил вместе с покойным супругом Эллен…

Сэмпл: http://multi-up.com/933578
Качество видео: HDRip (Исх. BDRip 720p)
Формат видео: AVI
Видео: 624x352 (1.77:1), 23.976 fps, XviD build 50 ~1018 kbps avg, 0.19 bit/pixel
Аудио: 48 kHz, MPEG Layer 3, 2 ch, ~128.00 kbps avg

MediaInfo

Общее
Полное имя : S:\Фильмы\В осаде. 2013. HDRip.avi
Формат : AVI
Формат/Информация : Audio Video Interleave
Размер файла : 745 Мбайт
Продолжительность : 1 ч. 30 м.
Общий поток : 1156 Кбит/сек
Программа кодирования : VirtualDubMod 1.5.10.3 | www.virtualdub-fr.org || (build 2550/release)
Библиотека кодирования : VirtualDubMod build 2550/release
Видео
Идентификатор : 0
Формат : MPEG-4 Visual
Профиль формата : Advanced Simple@L5
Параметр BVOP формата : 2
Параметр QPel формата : Нет
Параметр GMC формата : Без точки перехода
Параметр матрицы формата : Выборочная
Идентификатор кодека : XVID
Идентификатор кодека/Подсказка : XviD
Продолжительность : 1 ч. 30 м.
Битрейт : 1018 Кбит/сек
Ширина : 624 пикс.
Высота : 352 пикс.
Соотношение сторон : 16:9
Частота кадров : 23,976 кадр/сек
Цветовое пространство : YUV
Подвыборка цветности : 4:2:0
Битовая глубина : 8 бит
Тип развёртки : Прогрессивная
Метод сжатия : С потерями
Бит/(Пиксели*Кадры) : 0.193
Размер потока : 657 Мбайт (88%)
Библиотека кодирования : XviD 1.2.1 (UTC 2008-12-04)
Аудио
Идентификатор : 1
Формат : MPEG Audio
Версия формата : Version 1
Профиль формата : Layer 3
Идентификатор кодека : 55
Идентификатор кодека/Подсказка : MP3
Продолжительность : 1 ч. 30 м.
Вид битрейта : Постоянный
Битрейт : 128 Кбит/сек
Каналы : 2 канала
Частота : 48,0 КГц
Метод сжатия : С потерями
Размер потока : 82,5 Мбайт (11%)
Выравнивание : Соединение по промежуткам
Продолжительность промежутка : 42 мс. (1,00 видеокадр)
Время предзагрузки промежутка : 504 ms
Библиотека кодирования : LAME3.99r
Настройки программы : -m s -V 4 -q 2 -lowpass 17 -b 128

Скриншот c названием фильма

Скриншоты

Скачать

Скачать торрент!

Как скачивать? · Что такое торрент? · Рейтинг и ограничения

Сайт не распространяет и не хранит электронные версии произведений, а лишь предоставляет доступ к создаваемому пользователями каталогу ссылок на торрент-файлы, которые содержат только списки хеш-сумм

[Профиль] [ЛС]
Показать сообщения:    
Ответить на тему

Текущее время: Сегодня 16:28

Часовой пояс: GMT + 4



Вы не можете начинать темы
Вы не можете отвечать на сообщения
Вы не можете редактировать свои сообщения
Вы не можете удалять свои сообщения
Вы не можете голосовать в опросах
Вы не можете прикреплять файлы к сообщениям
Вы не можете скачивать файлы