Клуб CBGB / CBGB (Рэндолл Миллер / Randall Miller) [2013, США, Драма, музыка, WEB-DL 720p] Sub Rus (HinoJaySimpson)

Ответить на тему
 
Автор Сообщение

user ®

Стаж: 7 лет 7 месяцев

Сообщений: 20008

Пост Пост: #1 от 19-Дек-2013 00:00

[Цитировать]

Клуб CBGB / CBGB
Страна: США
Жанр: Драма, музыка
Год выпуска: 2013
Продолжительность: 01:42
Перевод: Субтитры HinoJaySimpson
Cубтитры: русские
Режиссер: Рэндолл Миллер / Randall Miller
В ролях: Алан Рикман, Донал Лог, Эшли Грин, Фредди Родригес
Описание:
Фильм рассказывает историю человека по имени Хилли Кристал,
его клуба CBGB и о возникновении панк-рока в Америке.
Сэмпл
Качество видео: WEB-DL
Формат видео: MKV
Видео: AVC, 1280x532, 2.40:1, 3 543 Kbps
Аудио: AC-3, 384 Kbps, 6 channels
Формат субтитров: softsub (SRT)

Саундтрек

1. "Life During Wartime" - Talking Heads
2. "Kick Out The Jams" (Uncensored Version) - MC5
3. "Chatterbox" - New York Dolls
4. "Careful" - Television
5. "Blank Generation" - Richard Hell and the Voidoids
6. "Slow Death" - Flamin' Groovies
7. "I Can't Stand It" - The Velvet Underground
8. "Out Of Control (the featured track from the album)" - Wayne County & the Electric Chairs
9. "Psychotic Reaction" - Count Five
10. "All For The Love Of Rock 'n' Roll" - Tuff Darts
11. "All By Myself" - The Heartbreakers
12. "California Sun" (Original DEMO) - The Dictators
13. "Caught With The Meat In Your Mouth" - Dead Boys
14. "I Got Knocked Down (But I'll Get Up)" - Joey Ramone
15. "Get Outta My Way" - The Laughing Dogs
16. "Sunday Girl" (2013 Version) - Blondie
17. "I Wanna Be Your Dog" - The Stooges
18. "Sonic Reducer" - Dead Boys
19. "Roxanne" - The Police
20. "Birds And The Bees" - Hilly Kristal

MediaInfo

General
Unique ID : 206202219538442021481114217147996670193 (0x9B211A5904D25CE5B306FF1D259D88F1)
Complete name : C:\Documents and Settings\Inessa\Мои документы\Downloads\CBGB.RusSub.HinoJaysimpson.mkv
Format : Matroska
Format version : Version 4 / Version 2
File size : 2.87 GiB
Duration : 1h 42mn
Overall bit rate : 4 007 Kbps
Encoded date : UTC 2013-12-17 13:10:11
Writing application : mkvmerge v6.6.0 ('The Edge Of The In Between') built on Dec 1 2013 17:55:00
Writing library : libebml v1.3.0 + libmatroska v1.4.1
Video
ID : 1
Format : AVC
Format/Info : Advanced Video Codec
Format profile : Main@L3.1
Format settings, CABAC : No
Format settings, ReFrames : 2 frames
Codec ID : V_MPEG4/ISO/AVC
Duration : 1h 42mn
Bit rate : 3 543 Kbps
Width : 1 280 pixels
Height : 532 pixels
Display aspect ratio : 2.40:1
Frame rate mode : Constant
Frame rate : 23.976 fps
Color space : YUV
Chroma subsampling : 4:2:0
Bit depth : 8 bits
Scan type : Progressive
Bits/(Pixel*Frame) : 0.217
Stream size : 2.54 GiB (88%)
Language : English
Default : Yes
Forced : No
Color primaries : BT.709
Transfer characteristics : BT.709
Matrix coefficients : BT.709
Audio
ID : 2
Format : AC-3
Format/Info : Audio Coding 3
Mode extension : CM (complete main)
Format settings, Endianness : Big
Codec ID : A_AC3
Duration : 1h 42mn
Bit rate mode : Constant
Bit rate : 384 Kbps
Channel(s) : 6 channels
Channel positions : Front: L C R, Side: L R, LFE
Sampling rate : 48.0 KHz
Bit depth : 16 bits
Compression mode : Lossy
Stream size : 281 MiB (10%)
Language : English
Default : Yes
Forced : No
Text
ID : 3
Format : UTF-8
Codec ID : S_TEXT/UTF8
Codec ID/Info : UTF-8 Plain Text
Default : Yes
Forced : No
Menu
00:00:00.000 : en:1
00:07:40.000 : en:2
00:13:01.000 : en:3
00:18:07.000 : en:4
00:23:39.000 : en:5
00:32:47.000 : en:6
00:36:30.000 : en:7
00:43:28.000 : en:8
00:48:34.000 : en:9
00:54:44.000 : en:10
01:02:48.000 : en:11
01:08:49.000 : en:12
01:13:33.000 : en:13
01:18:35.000 : en:14
01:23:54.000 : en:15
01:31:03.000 : en:16

Скриншот c названием фильма

Скриншоты

Пример сабов

58
00:04:42,383 --> 00:04:43,882
Украли?
59
00:04:43,884 --> 00:04:45,384
Берта, никто не ворует у бедных
60
00:04:45,386 --> 00:04:47,686
- Че?
- Хилли пропал.
61
00:04:47,688 --> 00:04:50,422
Заводи машину.
62
00:04:50,424 --> 00:04:52,924
Давай, давай, бегом!
63
00:05:03,504 --> 00:05:05,871
Как он попал сюда?
64
00:05:05,873 --> 00:05:07,839
Наверное дошел?
65
00:05:07,841 --> 00:05:10,008
Три мили?
66
00:05:10,010 --> 00:05:13,045
Две с половиной.
67
00:05:13,047 --> 00:05:16,081
Это не нормально.
68
00:05:16,083 --> 00:05:17,616
Хиллел Кристал.
69
00:05:17,618 --> 00:05:21,920
Вы проживаете на 21-й ист и 2-ой?
70
00:05:25,224 --> 00:05:28,260
И каково ваше семейное
положение м-р. Кристал?
71
00:05:28,262 --> 00:05:30,028
Мы с женой расстались.
72
00:05:30,030 --> 00:05:31,797
Расстались или разведены?
73
00:05:31,799 --> 00:05:33,732
Разведены, ага.
74
00:05:33,734 --> 00:05:35,000
Дети?
75
00:05:35,002 --> 00:05:36,568
Двое.
76
00:05:36,570 --> 00:05:40,439
И это ваша... вторая
неудачная попытка открыть бар.
77
00:05:40,441 --> 00:05:43,775
Клуб.
78
00:05:43,777 --> 00:05:47,813
Разведен и дважды банкрот.
79
00:05:47,815 --> 00:05:50,148
Возможно, вам стоит
попробовать что-то другое
Скачать

Скачать торрент!

Как скачивать? · Что такое торрент? · Рейтинг и ограничения

Сайт не распространяет и не хранит электронные версии произведений, а лишь предоставляет доступ к создаваемому пользователями каталогу ссылок на торрент-файлы, которые содержат только списки хеш-сумм

[Профиль] [ЛС]
Показать сообщения:    
Ответить на тему

Текущее время: Сегодня 20:39

Часовой пояс: GMT + 4



Вы не можете начинать темы
Вы не можете отвечать на сообщения
Вы не можете редактировать свои сообщения
Вы не можете удалять свои сообщения
Вы не можете голосовать в опросах
Вы не можете прикреплять файлы к сообщениям
Вы не можете скачивать файлы