Макс Пэйн / Max Payne (Джон Мур / John Moore) [2008, Канада, США, боевик, триллер, драма, криминал, детектив, BDRemux 1080p] [unrated] Dub + MVO + AVO (Гаврилов) + AVO (Немахов) + Original (Eng) + Sub Rus, Eng

Ответить на тему
 
Автор Сообщение

user ®

Стаж: 7 лет 7 месяцев

Сообщений: 20008

Пост Пост: #1 от 18-Дек-2013 20:50

[Цитировать]

Макс Пэйн / Max Payne / unrated
Страна: Канада, США
Жанр: боевик, триллер, драма, криминал, детектив
Год выпуска: 2008
Продолжительность: 1:42:58
Перевод: Профессиональный (дублированный)
Перевод 2: Профессиональный (многоголосый закадровый)
Перевод 3: Авторский (одноголосый закадровый)
Перевод 4: Авторский (одноголосый закадровый)
Cубтитры: русские, английские
Оригинальная аудиодорожка: английский
Режиссер: Джон Мур / John Moore
В ролях: Марк Уолберг, Мила Кунис, Бо Бриджес, Лудакрис, Крис О’Доннелл, Донал Лог, Амори Ноласко, Кейт Бёртон, Ольга Куриленко, Ротафорд Грэй
слоган «New York. Fugitive undercover cop. Nothing to lose»
Описание: Сотруднику Управления по борьбе с наркотиками не на что жаловаться. У него есть все: отличная работа, любящая жена и маленький ребенок. Словом, не жизнь, а американская мечта, которая однажды оборачивается самым страшным кошмаром: какой-то психопат убивает его семью.
Отныне у Макса только одна цель — отомстить. Но месть осложняется тем, что его несправедливо обвиняют в убийстве, и все, кому не лень, начинают на него охоту — Полицейское управление Нью-Йорка, уголовный мир и городские власти. Теперь ему уже действительно нечего терять и нечего опасаться. При такой отчаянной решимости только Макс Пэйн способен пролить свет на все тайны, связанные с уничтожением его семьи, и главное, получить удовлетворение от мести, которой он так жаждет.
все спасибо уходят этим людям:
Совместный проект Jiraya87 & delo2006.
За чистый голос Гаврилова , Андрея спасибо dunhill200.

Сэмпл: http://yadi.sk/d/o9Pb9Cv1EBcNP
Тип релиза: BDRemux 1080p
Контейнер: MKV
Видео: MPEG-4 AVC ~22128 kbps 1080p / 23,976 fps / 16:9 / High Profile 4.1
Аудио: Russian DTS 5.1 48 kHz 768 kbps 24-bit - дублированный, BD CEE
Аудио 2: Russian AC3 5.1 48 kHz 448 kbps 16-bit - закадровый (многоголосый, Киномания)
Аудио 3: Russian DTS-HD MA 5.1 48 kHz 4020 kbps 24-bit (DTS Core: 5.1 / 48 kHz / 1509 kbps / 24-bit) - закадровый (авторский одноголосый, Гаврилов ,Андрей);
Аудио 4: Russian DTS-HD MA 5.1 48 kHz 3980 kbps 24-bit (DTS Core: 5.1 / 48 kHz / 1509 kbps / 24-bit) - закадровый (авторский одноголосый, Немахов ,Юрий);
Аудио 5: English DTS HR 5.1 48 kHz 3018 kbps 24-bit (DTS Core: 5.1 / 48 kHz / 1509 kbps / 24-bit);
Формат субтитров: softsub (SRT)

MediaInfo

Общее
Уникальный идентификатор : 177665213388618757430237719162844794658 (0x85A91350F5E20997BE33C517B4C2CF22)
Полное имя : E:\V.S.P\MOVIE\Mark Robert Michael Wahlberg\Max Payne_2008г\Maks.Pein.Unrated.2008.BDRemux.1080p.mkv
Формат : Matroska
Версия формата : Version 4 / Version 2
Размер файла : 24,7 Гбайт
Продолжительность : 1 ч. 42 м.
Режим общего битрейта :22128 kbps
Общий поток : 34,4 Мбит/сек
Дата кодирования : UTC 2013-12-12 05:01:57
Программа кодирования : mkvmerge v6.4.1 ('Omega Point') built on Sep 16 2013 22:05:10
Библиотека кодирования : libebml v1.3.0 + libmatroska v1.4.1
Видео
Идентификатор : 1
Формат : AVC
Формат/Информация : Advanced Video Codec
Профиль формата : High@L4.1
Параметр CABAC формата : Да
Параметр ReFrames формата : 2 кадра
Идентификатор кодека : V_MPEG4/ISO/AVC
Продолжительность : 1 ч. 42 м.
Вид битрейта : Переменный
Ширина : 1920 пикселей
Высота : 1080 пикселей
Соотношение сторон : 16:9
Режим частоты кадров : Постоянный
Частота кадров : 23,976 кадра/сек
Цветовое пространство : YUV
Субдискретизация насыщенности : 4:2:0
Битовая глубина : 8 бит
Тип развёртки : Прогрессивная
Заголовок : _[Maks.Pein.Unrated.2008.BDRemux.1080p.mkv]_[Yerevan_Armenia]_
Язык : English
Default : Да
Forced : Нет
Аудио #1
Идентификатор : 2
Формат : DTS
Формат/Информация : Digital Theater Systems
Режим : 16
Параметр Endianness формата : Big
Идентификатор кодека : A_DTS
Продолжительность : 1 ч. 42 м.
Вид битрейта : Постоянный
Битрейт : 768 Кбит/сек
Каналы : 6 каналов
Расположение каналов : Front: L C R, Side: L R, LFE
Частота : 48,0 КГц
Битовая глубина : 24 бит
Метод сжатия : С потерями
Размер потока : 566 Мбайт (2%)
Заголовок : _[дублированный, BD CEE]_[ DTS / 5.1 / 48 kHz / 768 kbps / 24-bit]_
Язык : Russian
Default : Да
Forced : Нет
Аудио #2
Идентификатор : 3
Формат : AC-3
Формат/Информация : Audio Coding 3
Расширение режима : CM (complete main)
Параметр Endianness формата : Big
Идентификатор кодека : A_AC3
Продолжительность : 1 ч. 42 м.
Вид битрейта : Постоянный
Битрейт : 448 Кбит/сек
Каналы : 6 каналов
Расположение каналов : Front: L C R, Side: L R, LFE
Частота : 48,0 КГц
Битовая глубина : 16 бит
Метод сжатия : С потерями
Размер потока : 330 Мбайт (1%)
Заголовок : _[Kinomania]_[AC3 / 5.1 / 48 kHz / 448 kbps / 16-bit]
Язык : Russian
Default : Нет
Forced : Нет
Аудио #3
Идентификатор : 4
Формат : DTS
Формат/Информация : Digital Theater Systems
Профиль формата : MA / Core
Режим : 16
Параметр Endianness формата : Big
Идентификатор кодека : A_DTS
Продолжительность : 1 ч. 42 м.
Вид битрейта : Переменный
Битрейт : Неизвестно / 1509 Кбит/сек
Каналы : 6 каналов
Расположение каналов : Front: L C R, Side: L R, LFE
Частота : 48,0 КГц
Битовая глубина : 24 бит
Метод сжатия : Без потерь / Lossy
Заголовок : _[Гаврилов , Андрей]_[DTS-HD MA / 5.1 / 48 kHz / 4020 kbps / 24-bit]_
Язык : Russian
Default : Нет
Forced : Нет
Аудио #4
Идентификатор : 5
Формат : DTS
Формат/Информация : Digital Theater Systems
Профиль формата : MA / Core
Режим : 16
Параметр Endianness формата : Big
Идентификатор кодека : A_DTS
Продолжительность : 1 ч. 42 м.
Вид битрейта : Переменный
Битрейт : Неизвестно / 1509 Кбит/сек
Каналы : 6 каналов
Расположение каналов : Front: L C R, Side: L R, LFE
Частота : 48,0 КГц
Битовая глубина : 24 бит
Метод сжатия : Без потерь / Lossy
Заголовок : _[Немахов , Юрий]_[DTS-HD MA / 5.1 / 48 kHz / 3980 kbps / 24-bit]_
Язык : Russian
Default : Нет
Forced : Нет
Аудио #5
Идентификатор : 6
Формат : DTS
Формат/Информация : Digital Theater Systems
Профиль формата : HRA / Core
Режим : 16
Параметр Endianness формата : Big
Идентификатор кодека : A_DTS
Продолжительность : 1 ч. 42 м.
Вид битрейта : Постоянный
Битрейт : 3018 Кбит/сек / 1509 Кбит/сек
Каналы : 6 каналов
Расположение каналов : Front: L C R, Side: L R, LFE
Частота : 48,0 КГц
Битовая глубина : 24 бит
Метод сжатия : С потерями
Размер потока : 2,17 Гбайт (9%)
Заголовок : _[DTS HR / 5.1 / 48 kHz / 3018 kbps / 24-bit]_
Язык : English
Default : Нет
Forced : Нет
Текст #1
Идентификатор : 7
Формат : UTF-8
Идентификатор кодека : S_TEXT/UTF8
Идентификатор кодека/Информация : UTF-8 Plain Text
Заголовок : Forced
Язык : Russian
Default : Да
Forced : Нет
Текст #2
Идентификатор : 8
Формат : UTF-8
Идентификатор кодека : S_TEXT/UTF8
Идентификатор кодека/Информация : UTF-8 Plain Text
Заголовок : Full
Язык : Russian
Default : Нет
Forced : Нет
Текст #3
Идентификатор : 9
Формат : UTF-8
Идентификатор кодека : S_TEXT/UTF8
Идентификатор кодека/Информация : UTF-8 Plain Text
Заголовок : Full
Язык : English
Default : Нет
Forced : Нет
Меню
00:00:00.000 : :Chapter 01
00:01:55.740 : :Chapter 02
00:04:15.672 : :Chapter 03
00:08:23.461 : :Chapter 04
00:13:49.203 : :Chapter 05
00:17:04.732 : :Chapter 06
00:21:18.360 : :Chapter 07
00:23:20.649 : :Chapter 08
00:26:25.417 : :Chapter 09
00:30:33.206 : :Chapter 10
00:32:48.424 : :Chapter 11
00:34:54.634 : :Chapter 12
00:37:36.087 : :Chapter 13
00:44:08.854 : :Chapter 14
00:50:37.659 : :Chapter 15
00:55:12.809 : :Chapter 16
01:01:41.948 : :Chapter 17
01:04:22.149 : :Chapter 18
01:07:55.654 : :Chapter 19
01:15:17.054 : :Chapter 20
01:18:05.847 : :Chapter 21
01:21:21.418 : :Chapter 22
01:23:03.812 : :Chapter 23
01:26:23.469 : :Chapter 24
01:29:02.128 : :Chapter 25
01:33:31.105 : :Chapter 26
01:35:18.337 : :Chapter 27
01:41:18.697 : :Chapter 28
01:42:58.255 : :Chapter 29

Скриншоты




Скачать

Скачать торрент!

Как скачивать? · Что такое торрент? · Рейтинг и ограничения

Сайт не распространяет и не хранит электронные версии произведений, а лишь предоставляет доступ к создаваемому пользователями каталогу ссылок на торрент-файлы, которые содержат только списки хеш-сумм

[Профиль] [ЛС]
Показать сообщения:    
Ответить на тему

Текущее время: Сегодня 14:27

Часовой пояс: GMT + 4



Вы не можете начинать темы
Вы не можете отвечать на сообщения
Вы не можете редактировать свои сообщения
Вы не можете удалять свои сообщения
Вы не можете голосовать в опросах
Вы не можете прикреплять файлы к сообщениям
Вы не можете скачивать файлы