Люди под лестницей / People under the stairs, The (Уэс Крэйвен / Wes Craven) [1991, США, ужасы, триллер, детектив, WEB-DL 720p] AVO(Гаврилов) + MVO + Sub Rus, Eng + original eng

Ответить на тему
 
Автор Сообщение

user ®

Стаж: 7 лет 7 месяцев

Сообщений: 20008

Пост Пост: #1 от 18-Дек-2013 05:30

[Цитировать]

Люди под лестницей / People under the stairs, The
Страна: США
Студия: Universal Pictures & Alive Films
Жанр: ужасы, триллер, детектив
Год выпуска: 1991
Продолжительность: 01:41:56
Перевод 1: Авторский (одноголосый закадровый) АНДРЕЙ ГАВРИЛОВ
Перевод 2: Профессиональный (многоголосый закадровый)
Cубтитры: русские, английские
Оригинальная аудиодорожка: английский
Режиссер: Уэс Крэйвен / Wes Craven
В ролях: Брэндон Адамс / Brandon Adams, Эверетт МакГилл / Everett McGill, Уэнди Роби / Wendy Robie, A.J. Langer, Ving Rhames, Sean Whalen, Bill Cobbs, Kelly Jo Minter, Jeremy Roberts, Conni Marie Brazelton, Joshua Cox, John Hostetter, John Mahon, Teresa Velarde, George R. Parker
Описание: Страшная сказка на ночь
В любом городе есть дома, о которых взрослые говорят шепотом, а дети переходят на другую сторону улицы, едва завидев их мрачные стены …
Шедевр жанра от мастера ужасов и создателя культовых фильмов «Кошмар на улице Вязов» и «Крик» Уэса Крейвена. Гениальная режиссура, зловещие декорации, напоминающие смертельный лабиринт Минотавра, и лихо закрученный, непредсказуемый сюжет создают абсолютно нереальную атмосферу беспредельного страха.
Данный фильм только подтвердил мои симпатии к творчеству Уэса Крэйвена, снято просто прекрасно. Перепетии выживания Фула смотрятся на одном дыхании, что называется — настоящий саспенс. Картина построена на основных людских страхах: замкнутое пространство, темнота, презлая собака, психопаты и прочее, прочее… Но стоит отметить, что время от времени атмосфера очень удачно разряжается убойным черным юмором, чего только стоит Папочка, расхаживающий в кожаном костюме с дробовиком аля Postal…
И нельзя не отметить великолепные декорации. Два этажа, подвал и чердак, лабиринт внутристенных пространств и вентиляционных каналов — восхитительная работа, располагающая проникнуться происходящим на экране.
Хозяев дома сыграл весьма впечетляющий дуэт актеров — Эверетт МакГилл и Венди Роби, которых Крэйвен заприметил и решил пригласить в фильм после «Твин Пикс», где они также играли семейную пару. МакГилл — очень колоритный дядька под два метра ростом с шикарной мимикой и громовым голосом. Дети-актеры тоже молодцы, никаких нареканий не вызвали…
Единственное, к чему я не знаю, как относиться, даже после неоднократного просмотра, так это уход в сказку к финалу. Не знаю, скорее положительно отношусь, во всяком случае получилось неординарно.
В итоге: отличный захватываюший хоррор от Уэса Крэйвена, или, если точнее, настоящая страшная сказка на ночь, которой иногда так не хватает в современном кинематографе. (MolChun)
--------------------------------------------------
Оператор: Сэнди Сиссел (Sandi Sissel)
Сценарист: Уэс Крэйвен (Wes Craven)
Продюсеры: Стюарт М. Бессер (Stuart M. Besser), Марианн Маддалена /Marianne Maddalena/, Уэс Крэйвен /
Исполнительный продюсер: Уэс Крэйвен (Wes Craven)
Монтажер: Джеймс Коблентц /James Coblentz/
Композитор: Дон Пик /Don Peake/
Художники: Брайан Джонс /Bryan Jones/, Стивен Ллойд Шроер (Steven Lloyd Shroyer), Айлин Мелтцер (Ileane Meltzer)
--------------------------------------------------
КИНОПОИСК. RU
РЕЙТИНГ 6,655 оценки: 2933
6,2/10 from 18 139 users
--------------------------------------------------
----------------
СЭМПЛ
--------------------------------------------------
Примечание: Скорость маленькая 50 kb/c, но раздаю круглосуточно.
--------------------------------------------------
Тип релиза: WEB-DL 720p
Контейнер: MKV
Видео: 1280x694; 23.976 fps; ~ 4 045 Kbps; 0.190 Bits/Pixel
Аудио 1: Russian - 48 kHz, AC3, 2/0 Front: L R, ~ 192 kbps - Андрей Гаврилов
Аудио 2: Russian - 48 kHz, AC3, 2/0 Front: L R, ~ 192 kbps - MVO
Аудио 3: English - 48 kHz, AC3, 2/0 Front: L R, ~ 192 kbps
Формат субтитров: Russian (*UTF-8), English (*UTF-8)

MediaInfo

General
Complete name : F:\EXCLUZIVE=19\ЛЮДИ ПОД ЛЕСТНИЦЕЙ=People under the stairs, The.1991\The.People.Under.the.Stairs.1991\The.People.Under.the.Stairs.1991.720p.WEB-DL.mkv
Format : Matroska
File size : 3.36 GiB
Duration : 1h 41mn
Overall bit rate : 4 715 Kbps
Encoded date : UTC 2013-12-13 23:46:40
Writing application : mkvmerge v3.3.0 ('Language') built on Mar 24 2010 14:59:24
Writing library : libebml v0.8.0 + libmatroska v0.9.0
Video
ID : 1
Format : AVC
Format/Info : Advanced Video Codec
Format profile : High@L3.1
Format settings, CABAC : No
Format settings, ReFrames : 2 frames
Muxing mode : Container profile=Unknown@3.1
Codec ID : V_MPEG4/ISO/AVC
Duration : 1h 41mn
Bit rate : 4 045 Kbps
Width : 1 280 pixels
Height : 694 pixels
Display aspect ratio : 16:9
Frame rate : 23.976 fps
Color space : YUV
Chroma subsampling : 4:2:0
Bit depth : 8 bits
Scan type : Progressive
Bits/(Pixel*Frame) : 0.190
Stream size : 2.88 GiB (86%)
Title : The.People.Under.the.Stairs.1991.
Language : English
Color primaries : BT.709-5, BT.1361, IEC 61966-2-4, SMPTE RP177
Transfer characteristics : BT.709-5, BT.1361
Matrix coefficients : BT.709-5, BT.1361, IEC 61966-2-4 709, SMPTE RP177
Audio #1
ID : 2
Format : AC-3
Format/Info : Audio Coding 3
Mode extension : CM (complete main)
Codec ID : A_AC3
Duration : 1h 41mn
Bit rate mode : Constant
Bit rate : 192 Kbps
Channel(s) : 2 channels
Channel positions : Front: L R
Sampling rate : 48.0 KHz
Stream size : 140 MiB (4%)
Title : AVO Гаврилов @ AC3 2ch. 192 kbps
Language : Russian
Audio #2
ID : 3
Format : AC-3
Format/Info : Audio Coding 3
Mode extension : CM (complete main)
Codec ID : A_AC3
Duration : 1h 41mn
Bit rate mode : Constant
Bit rate : 192 Kbps
Channel(s) : 2 channels
Channel positions : Front: L R
Sampling rate : 48.0 KHz
Stream size : 140 MiB (4%)
Title : MVO @ AC3 2ch. 192 kbps
Language : Russian
Audio #3
ID : 4
Format : AC-3
Format/Info : Audio Coding 3
Mode extension : CM (complete main)
Codec ID : A_AC3
Duration : 1h 41mn
Bit rate mode : Constant
Bit rate : 192 Kbps
Channel(s) : 2 channels
Channel positions : Front: L R
Sampling rate : 48.0 KHz
Stream size : 140 MiB (4%)
Title : Original @ AC3 2ch. 192 kbps
Language : English
Text #1
ID : 5
Format : UTF-8
Codec ID : S_TEXT/UTF8
Codec ID/Info : UTF-8 Plain Text
Title : (* UTF-8)
Language : Russian
Text #2
ID : 6
Format : UTF-8
Codec ID : S_TEXT/UTF8
Codec ID/Info : UTF-8 Plain Text
Title : (* UTF-8)
Language : English
Menu
00:00:00.000 : en:"The Fool" (Main Titles)
00:05:18.000 : en:Hidden Treasure
00:11:33.000 : en:Casing the House
00:16:14.000 : en:Man Trap
00:22:13.000 : en:Keep an Eye Out
00:26:27.000 : en:Who Are You?
00:34:20.000 : en:Hunted Down
00:41:27.000 : en:Police Are Outside
00:47:26.000 : en:Sic'em Prince
00:52:12.000 : en:Dead Meat
00:57:10.000 : en:Burn in Hell
01:00:09.000 : en:Gotcha
01:06:12.000 : en:My Promise to Alice
01:11:18.000 : en:Nighty Night
01:16:07.000 : en:All Tied Up
01:23:40.000 : en:You're Busted
01:29:40.000 : en:Jackpot!
01:38:24.000 : en:End Titles

Скриншоты

, ,
, ,
Скачать

Скачать торрент!

Как скачивать? · Что такое торрент? · Рейтинг и ограничения

Сайт не распространяет и не хранит электронные версии произведений, а лишь предоставляет доступ к создаваемому пользователями каталогу ссылок на торрент-файлы, которые содержат только списки хеш-сумм

[Профиль] [ЛС]
Показать сообщения:    
Ответить на тему

Текущее время: Сегодня 14:14

Часовой пояс: GMT + 4



Вы не можете начинать темы
Вы не можете отвечать на сообщения
Вы не можете редактировать свои сообщения
Вы не можете удалять свои сообщения
Вы не можете голосовать в опросах
Вы не можете прикреплять файлы к сообщениям
Вы не можете скачивать файлы