Воин / Warrior (Гэвин О’Коннор / Gavin O\'Connor) [2011, США, Спортивная драма, боевые искусства, BDRip 720p] MVO (R5) + AVO (Ю.Сербин) + Sub Rus, Eng + Original Eng

Ответить на тему
 
Автор Сообщение

user ®

Стаж: 7 лет 7 месяцев

Сообщений: 20008

Пост Пост: #1 от 18-Дек-2013 05:30

[Цитировать]

Воин / Warrior«Family is worth fighting for»
Страна: США
Студия: Lionsgate, Mimran Schur Pictures, Solaris
Жанр: Спортивная драма, боевые искусства
Год выпуска: 2011
Продолжительность: 02:19:54
Перевод: Профессиональный (многоголосый закадровый) R5
Перевод 2: Авторский (одноголосый закадровый) Ю.Сербин
Cубтитры: русские
Оригинальная аудиодорожка: английский
Режиссер: Гэвин О’Коннор / Gavin O'Connor
В ролях: Джоэл Эдгертон, Том Харди, Ник Нолти, Дженнифер Моррисон, Фрэнк Грилло, Кевин Данн, Максимилианно Эрнандез, Брайан Коллен, Сэм Шеридан, Фернандо Чиен...
Описание: Томми Конлон — молодой боец, вернувшийся домой после долгого отсутствия, чтобы приготовиться к участию в большом турнире. Отец-пьяница, в прошлом талантливый боксер, берется тренировать сына. Томми с успехом проходит все этапы соревнования, но кто бы мог подумать, что в финале судьба столкнет его на ринге… с собственным братом...

Тип релиза: BDRip 720p
Контейнер: MKV
Видео: 1280x534 at 23.976 fps, x264@L4.1, 2pass, ~9000 kbps avg
Аудио: Russian: 48 kHz, DTS, 3/2 (L,C,R,l,r) LFE ch, ~1536.00 kbps avg |Многоголосый закадровый, R5|
Аудио 2: Russian: 48 kHz, DTS, 3/2 (L,C,R,l,r) LFE ch, ~1536.00 kbps avg |Одноголосый закадровый, Ю.Сербин|
Аудио 3: English: 48 kHz, DTS, 3/2 (L,C,R,l,r) LFE ch, ~1536.00 kbps avg
Аудио 4: English: 48 kHz, AC3, 2/0 (L,R) ch, ~224.00 kbps avg |Commentary with Gavin O'Connor, Anthony Tambakis, Joel Edgerton|
Субтитры: Russian (R5), Russian (по переводу Ю.Сербина от Silver для СПАМ English, English (SDH), Spanish
Дополнительная информация:
  • Рип от DON!
  • Сохранены оригинальные чаптеры как на Blu-ray.
  • Дорожка №1 получена наложением выделенных голосов на центр декодированного DTS-HD MA.
  • Дорожка №2 получена наложением чистого голоса на центр декодированного DTS-HD MA.
  • Перевод Ю.Сербина осуществлен в рамках сервиса - "Озвучивание". Спонсоры: sergey_n, murtuz90, mihaildns, Scaramouche, Кириллка, tft, radical, timyrovec, АСАВ, elena 311, Alex15_90, Gercules, Slimka, safreks, Loki1982, Dervish, benjjjamin.

MediaInfo

Общее
Уникальный идентификатор : 240446488883376577239016056286752143295 (0xB4E44F2E0B48324B8B22D7DE5141F7BF)
Полное имя : D:\torrent\Warrior.2011.720p.BluRay.2xRus.2xEng.HDCLUB.mkv
Формат : Matroska
Версия формата : Version 2
Размер файла : 13,4 Гбайт
Продолжительность : 2 ч. 19 м.
Общий поток : 13,8 Мбит/сек
Название фильма : Warrior (2011) - Release for HDCLUB
Дата кодирования : UTC 2012-03-31 13:59:14
Программа кодирования : mkvmerge v5.4.0 ('Piper') built on Mar 10 2012 13:34:39
Библиотека кодирования : libebml v1.2.3 libmatroska v1.3.0
Видео
Идентификатор : 1
Формат : AVC
Формат/Информация : Advanced Video Codec
Профиль формата : High@L4.1
Параметр CABAC формата : Да
Параметр ReFrames формата : 12 кадров
Идентификатор кодека : V_MPEG4/ISO/AVC
Продолжительность : 2 ч. 19 м.
Битрейт : 9000 Кбит/сек
Ширина : 1280 пикселей
Высота : 534 пикселя
Соотношение сторон : 2,40:1
Режим частоты кадров : Постоянный
Частота кадров : 23,976 кадра/сек
Цветовое пространство : YUV
Субдискретизация насыщенности : 4:2:0
Битовая глубина : 8 бит
Тип развёртки : Прогрессивная
Бит/(Пиксели*Кадры) : 0.549
Размер потока : 8,53 Гбайт (63%)
Заголовок : Warrior (2011) - Release for HDCLUB
Библиотека кодирования : x264 core 120 r2120 0c7dab9
Настройки программы : cabac=1 / ref=12 / deblock=1:-3:-3 / analyse=0x3:0x133 / me=tesa / subme=11 / psy=1 / psy_rd=1.05:0.05 / mixed_ref=1 / me_range=24 / chroma_me=1 / trellis=2 / 8x8dct=1 / cqm=0 / deadzone=21,11 / fast_pskip=0 / chroma_qp_offset=-3 / threads=12 / sliced_threads=0 / nr=0 / decimate=0 / interlaced=0 / bluray_compat=0 / constrained_intra=0 / bframes=7 / b_pyramid=2 / b_adapt=2 / b_bias=0 / direct=3 / weightb=1 / open_gop=0 / weightp=2 / keyint=250 / keyint_min=23 / scenecut=40 / intra_refresh=0 / rc=2pass / mbtree=0 / bitrate=9000 / ratetol=1.0 / qcomp=0.60 / qpmin=0 / qpmax=69 / qpstep=4 / cplxblur=20.0 / qblur=0.5 / ip_ratio=1.40 / pb_ratio=1.30 / aq=1:0.60
Язык : English
Default : Да
Forced : Нет
Аудио #1
Идентификатор : 2
Формат : DTS
Формат/Информация : Digital Theater Systems
Режим : 16
Параметр Endianness формата : Big
Идентификатор кодека : A_DTS
Продолжительность : 2 ч. 19 м.
Вид битрейта : Постоянный
Битрейт : 1509 Кбит/сек
Каналы : 6 каналов
Расположение каналов : Front: L C R, Side: L R, LFE
Частота : 48,0 КГц
Битовая глубина : 24 бит
Метод сжатия : С потерями
Размер потока : 1,47 Гбайт (11%)
Заголовок : R5
Язык : Russian
Default : Да
Forced : Нет
Аудио #2
Идентификатор : 3
Формат : DTS
Формат/Информация : Digital Theater Systems
Режим : 16
Параметр Endianness формата : Big
Идентификатор кодека : A_DTS
Продолжительность : 2 ч. 19 м.
Вид битрейта : Постоянный
Битрейт : 1509 Кбит/сек
Каналы : 6 каналов
Расположение каналов : Front: L C R, Side: L R, LFE
Частота : 48,0 КГц
Битовая глубина : 24 бит
Метод сжатия : С потерями
Размер потока : 1,47 Гбайт (11%)
Заголовок : Ю.Сербин
Язык : Russian
Default : Нет
Forced : Нет
Аудио #3
Идентификатор : 4
Формат : DTS
Формат/Информация : Digital Theater Systems
Режим : 16
Параметр Endianness формата : Big
Идентификатор кодека : A_DTS
Продолжительность : 2 ч. 19 м.
Вид битрейта : Постоянный
Битрейт : 1509 Кбит/сек
Каналы : 6 каналов
Расположение каналов : Front: L C R, Side: L R, LFE
Частота : 48,0 КГц
Битовая глубина : 24 бит
Метод сжатия : С потерями
Размер потока : 1,47 Гбайт (11%)
Язык : English
Default : Нет
Forced : Нет
Аудио #4
Идентификатор : 5
Формат : AC-3
Формат/Информация : Audio Coding 3
Расширение режима : CM (complete main)
Параметр Endianness формата : Big
Идентификатор кодека : A_AC3
Продолжительность : 2 ч. 19 м.
Вид битрейта : Постоянный
Битрейт : 224 Кбит/сек
Каналы : 2 канала
Расположение каналов : Front: L R
Частота : 48,0 КГц
Битовая глубина : 16 бит
Метод сжатия : С потерями
Размер потока : 224 Мбайт (2%)
Заголовок : Commentary with Gavin O'Connor, Anthony Tambakis, Joel Edgerton
Язык : English
Default : Нет
Forced : Нет
Текст #1
Идентификатор : 6
Формат : UTF-8
Идентификатор кодека : S_TEXT/UTF8
Идентификатор кодека/Информация : UTF-8 Plain Text
Заголовок : R5
Язык : Russian
Default : Нет
Forced : Нет
Текст #2
Идентификатор : 7
Формат : UTF-8
Идентификатор кодека : S_TEXT/UTF8
Идентификатор кодека/Информация : UTF-8 Plain Text
Заголовок : voronine
Язык : Russian
Default : Нет
Forced : Нет
Текст #3
Идентификатор : 8
Формат : UTF-8
Идентификатор кодека : S_TEXT/UTF8
Идентификатор кодека/Информация : UTF-8 Plain Text
Язык : English
Default : Нет
Forced : Нет
Текст #4
Идентификатор : 9
Формат : UTF-8
Идентификатор кодека : S_TEXT/UTF8
Идентификатор кодека/Информация : UTF-8 Plain Text
Заголовок : SDH
Язык : English
Default : Нет
Forced : Нет
Текст #5
Идентификатор : 10
Формат : UTF-8
Идентификатор кодека : S_TEXT/UTF8
Идентификатор кодека/Информация : UTF-8 Plain Text
Заголовок : Latino
Язык : Spanish
Default : Нет
Forced : Нет
Меню
00:00:00.000 : en:00:00:00.000
00:10:32.840 : en:00:10:32.840
00:16:46.714 : en:00:16:46.714
00:26:34.551 : en:00:26:34.551
00:39:08.971 : en:00:39:08.971
00:45:49.622 : en:00:45:49.622
00:51:28.919 : en:00:51:28.919
00:58:27.796 : en:00:58:27.796
01:06:02.458 : en:01:06:02.458
01:14:27.254 : en:01:14:27.254
01:22:32.906 : en:01:22:32.906
01:30:35.638 : en:01:30:35.638
01:40:46.040 : en:01:40:46.040
01:52:55.977 : en:01:52:55.977
02:00:21.089 : en:02:00:21.089
02:06:50.394 : en:02:06:50.394

Скриншоты

Скачать

Скачать торрент!

Как скачивать? · Что такое торрент? · Рейтинг и ограничения

Сайт не распространяет и не хранит электронные версии произведений, а лишь предоставляет доступ к создаваемому пользователями каталогу ссылок на торрент-файлы, которые содержат только списки хеш-сумм

[Профиль] [ЛС]
Показать сообщения:    
Ответить на тему

Текущее время: Сегодня 03:59

Часовой пояс: GMT + 4



Вы не можете начинать темы
Вы не можете отвечать на сообщения
Вы не можете редактировать свои сообщения
Вы не можете удалять свои сообщения
Вы не можете голосовать в опросах
Вы не можете прикреплять файлы к сообщениям
Вы не можете скачивать файлы