Домоправитель (Роман Барабаш) [2013, комедия, HDTVRip]

Ответить на тему
 
Автор Сообщение

user ®

Стаж: 7 лет 7 месяцев

Сообщений: 20008

Пост Пост: #1 от 17-Дек-2013 23:10

[Цитировать]

Домоправитель
Жанр: комедия
Год выпуска: 2013
Продолжительность: 01:24:17
Режиссёр: Роман Барабаш
В ролях:
Илья Глинников
Алика Смехова
Полина Воробьева
Константин Милованов
Павел Бессонов
Сергей Бондарчук
Валерия Гуляева
Анна Полищук
Константин Чернокрылюк
Описание: На курсе Леши Агафонова появляется новенькая — Ангелина Аистова. Отчаявшись привлечь внимание красотки, он имитирует столкновение с её машиной. Оказавшись в особняке Аистовых, Леша понимает, что влюбился в дочь олигарха, который, впрочем, переживает не лучшие времена из-за затяжной «войны» с давним конкурентом. Чтобы замять дело о наезде, Леша был принят к Аистовым на должность садовника.
По долгу службы Леша захаживает в цветочный магазин, где знакомится с продавщицей Катей. Между ними завязывается дружба.
У Ангелины проблемы с учебой, и отец грозит лишить ее финансирования. Она решает использовать влюбленного садовника, который лучше всех пишет курсовые. Но отношения, замешанные на лжи, распадаются.
Когда все собираются на празднике в доме Аистова, начинаются сюрпризы: выясняется, что Катя — его старшая дочь. Просто она решила пробиться в жизни самостоятельно. Пришедший на празднование давний конкурент Аистова — Тихонов неожиданно объявляет, что Леша — его сын, который нашел способ разрешения конфликта между двумя бизнес-империями.
Ангелина потрясена — она не разглядела в Леше богатого наследника. А Леша и Катя поняли, что все время своего знакомства они шли навстречу друг другу.
Качество видео: HDTVRip
Формат видео: AVI
Видео: XviD, 25 fps, 720x400, ~ 2112 Кбит/с
Аудио: АС3, 48 kHz, 2ch, 192 Кбит/с

MediaInfo

Общее
Полное имя : E:\Видео\Domopravitel_2013.avi
Формат : AVI
Формат/Информация : Audio Video Interleave
Размер файла : 1,36 Гбайт
Продолжительность : 1 ч. 24 м.
Общий поток : 2314 Кбит/сек
Программа кодирования : VirtualDubMod 1.5.10.3 | www.virtualdub-fr.org || (build 2550/release)
Библиотека кодирования : VirtualDubMod build 2550/release
Видео
Идентификатор : 0
Формат : MPEG-4 Visual
Профиль формата : Advanced Simple@L5
Параметр BVOP формата : 1
Параметр QPel формата : Нет
Параметр GMC формата : Без точки перехода
Параметр матрицы формата : Default (H.263)
Идентификатор кодека : XVID
Идентификатор кодека/Подсказка : XviD
Продолжительность : 1 ч. 24 м.
Битрейт : 2112 Кбит/сек
Ширина : 720 пикселей
Высота : 400 пикселей
Соотношение сторон : 16:9
Частота кадров : 25,000 кадров/сек
Цветовое пространство : YUV
Субдискретизация насыщенности : 4:2:0
Битовая глубина : 8 бит
Тип развёртки : Прогрессивная
Метод сжатия : С потерями
Бит/(Пиксели*Кадры) : 0.293
Размер потока : 1,24 Гбайт (91%)
Библиотека кодирования : XviD 1.2.1 (UTC 2008-12-04)
Аудио
Идентификатор : 1
Формат : AC-3
Формат/Информация : Audio Coding 3
Расширение режима : CM (complete main)
Параметр Endianness формата : Big
Идентификатор кодека : 2000
Продолжительность : 1 ч. 24 м.
Вид битрейта : Постоянный
Битрейт : 192 Кбит/сек
Каналы : 2 канала
Расположение каналов : Front: L R
Частота : 48,0 КГц
Битовая глубина : 16 бит
Метод сжатия : С потерями
Размер потока : 116 Мбайт (8%)
Выравнивание : Разделение по промежуткам
Продолжительность промежутка : 40 мс. (1,00 видеокадр)
Время предзагрузки промежутка : 500 мс.

Скриншот c названием фильма

Скриншоты




Скачать

Скачать торрент!

Как скачивать? · Что такое торрент? · Рейтинг и ограничения

Сайт не распространяет и не хранит электронные версии произведений, а лишь предоставляет доступ к создаваемому пользователями каталогу ссылок на торрент-файлы, которые содержат только списки хеш-сумм

[Профиль] [ЛС]
Показать сообщения:    
Ответить на тему

Текущее время: Сегодня 03:16

Часовой пояс: GMT + 4



Вы не можете начинать темы
Вы не можете отвечать на сообщения
Вы не можете редактировать свои сообщения
Вы не можете удалять свои сообщения
Вы не можете голосовать в опросах
Вы не можете прикреплять файлы к сообщениям
Вы не можете скачивать файлы