Пленницы / Prisoners (Дени Вильнёв / Denis Villeneuve) [2013, США, Триллер, Драма, Криминал, BDRip-AVC] AVO (Ю.Сербин) + Original (English) + Subs (Rus, Eng)

Ответить на тему
 
Автор Сообщение

user ®

Стаж: 7 лет 7 месяцев

Сообщений: 20008

Пост Пост: #1 от 17-Дек-2013 23:10

[Цитировать]

Пленницы / Prisoners«Нельзя терять ни минуты»- Страна: США
Жанр: Триллер, Драма, Криминал
Год выпуска: 2013
Продолжительность: 02:33:12-Перевод: Авторский (одноголосый закадровый, Юрий Сербин)
Cубтитры: Русские (полные), Английские (SDH) (*srt)-Отдельно:
Оригинальная аудиодорожка: Английский
Перевод у Сербина выполнен в рамках сервиса HDCLUB "Озвучивание". Спонсоры: HDClub, а так же пользователи ресурсов e180, за что им огромная благодарность.-Режиссер: Дени Вильнёв / Denis Villeneuve-В ролях: Хью Джекман, Джейк Джилленхол, Виола Дэвис, Мария Белло, Терренс Ховард, Мелисса Лео, Пол Дано, Дилан Миннетт, Зои Борд, Эрин Герасимович и др.-Описание:Келлер Довер сталкивается с самым большим кошмаром каждого родителя: его шестилетняя дочь пропала вместе с подругой. Время бежит, девочки не возвращаются, и паника достигает своего предела. Единственная зацепка — обветшалый фургончик, который был припаркован на их улице, когда девочки играли во дворе. Детектив Локки, возглавляющий расследование, арестовывает его водителя, Алекса Джонса, но вскоре полиция вынуждена его отпустить из-за нехватки улик. Полиция медлит, а обезумевший от горя отец берет дело в свои руки. Но как далеко готов зайти Келлер в поисках девочек?-Автор: AngelOfTrue-Качество видео: BDRip-AVC | Prisoners.2013.COMPLETE.BLURAY-BAKED
Формат видео: MKV-Видео: 1094x616p (16:9), 23,976 fps, x264 ~1590 kbps avg, 0.098 bit/pixel
Аудио #1: AC3 Dolby Digital / 48 KHz / 448 kbps / 3/2 (L,C,R,l,r) + LFE ch| AVO (Юрий Сербин)
Размер: 2.18 GB (1/2 DVD) - без отдельных аудиодорог!-Отдельно:
Аудио #2: AC3 Dolby Digital / 48 KHz / 448 kbps / 3/2 (L,C,R,l,r) + LFE ch| Original (English)-

-

x264 log

avs [info]: 1094x616p 1:1 @ 2997/125 fps (cfr)
x264 [warning]: --psnr used with psy on: results will be invalid!
x264 [warning]: --tune psnr should be used if attempting to benchmark psnr!
x264 [info]: using SAR=1/1
x264 [info]: using cpu capabilities: MMX2 SSE2Fast SSSE3 SSE4.2 AVX AVX2 FMA3 LZCNT BMI1 BMI2
x264 [info]: profile High, level 4.0
x264 [info]: frame I:1602 Avg QP:14.34 size: 77225 PSNR Mean Y:49.48 U:53.04 V:53.37 Avg:50.38 Global:49.44
x264 [info]: frame P:41950 Avg QP:17.62 size: 19554 PSNR Mean Y:47.47 U:51.84 V:52.17 Avg:48.49 Global:47.34
x264 [info]: frame B:176821 Avg QP:19.37 size: 4992 PSNR Mean Y:47.51 U:51.98 V:52.41 Avg:48.54 Global:47.29
x264 [info]: consecutive B-frames: 1.1% 1.3% 2.9% 24.4% 14.9% 24.7% 10.7% 13.1% 1.8% 0.8% 0.8% 2.9% 0.6%
x264 [info]: mb I I16..4: 8.8% 69.5% 21.7%
x264 [info]: mb P I16..4: 0.7% 4.1% 0.7% P16..4: 35.1% 35.8% 11.3% 1.7% 0.2% skip:10.5%
x264 [info]: mb B I16..4: 0.1% 0.4% 0.1% B16..8: 32.1% 14.2% 1.8% direct: 2.6% skip:48.8% L0:43.5% L1:47.8% BI: 8.6%
x264 [info]: 8x8 transform intra:73.4% inter:55.6%
x264 [info]: direct mvs spatial:98.1% temporal:1.9%
x264 [info]: coded y,uvDC,uvAC intra: 82.2% 67.2% 43.1% inter: 11.3% 7.3% 2.8%
x264 [info]: i16 v,h,dc,p: 43% 13% 10% 33%
x264 [info]: i8 v,h,dc,ddl,ddr,vr,hd,vl,hu: 12% 10% 6% 9% 13% 13% 13% 12% 13%
x264 [info]: i4 v,h,dc,ddl,ddr,vr,hd,vl,hu: 14% 11% 6% 9% 14% 12% 12% 10% 12%
x264 [info]: i8c dc,h,v,p: 31% 35% 21% 13%
x264 [info]: Weighted P-Frames: Y:3.1% UV:1.2%
x264 [info]: ref P L0: 50.3% 8.4% 14.5% 6.9% 5.4% 4.2% 3.7% 2.1% 1.7% 1.5% 1.2% 0.1% 0.0%
x264 [info]: ref B L0: 68.8% 14.3% 6.6% 3.3% 2.3% 1.8% 1.4% 0.8% 0.5% 0.2%
x264 [info]: ref B L1: 91.0% 9.0%
x264 [info]: SSIM Mean Y:0.9878372 (19.150db)
x264 [info]: PSNR Mean Y:47.515 U:51.962 V:52.375 Avg:48.542 Global:47.309 kb/s:1589.85

-

MediaInfo

Формат : Matroska
Версия формата : Version 4 / Version 2
Размер файла : 2,18 Гбайт
Продолжительность : 2 ч. 33 м.
Общий поток : 2040 Кбит/сек
Дата кодирования : UTC 2013-12-16 11:45:00
Программа кодирования : mkvmerge v6.1.0 ('Old Devil') built on Mar 4 2013 09:10:42
Библиотека кодирования : libebml v1.3.0 + libmatroska v1.4.0
Видео
Идентификатор : 1
Формат : AVC
Формат/Информация : Advanced Video Codec
Профиль формата : High@L4.0
Параметр CABAC формата : Да
Параметр ReFrames формата : 11 кадров
Идентификатор кодека : V_MPEG4/ISO/AVC
Продолжительность : 2 ч. 33 м.
Битрейт : 1590 Кбит/сек
Ширина : 1094 пикселя
Высота : 616 пикселей
Соотношение сторон : 16:9
Режим частоты кадров : Постоянный
Частота кадров : 23,976 кадра/сек
Цветовое пространство : YUV
Субдискретизация насыщенности : 4:2:0
Битовая глубина : 8 бит
Тип развёртки : Прогрессивная
Бит/(Пиксели*Кадры) : 0.098
Размер потока : 1,66 Гбайт (76%)
Заголовок : Plennitsy.2013.DUAL.BDRip-AVC.AC3.-AngelOfTrue
Библиотека кодирования : x264 core 130 r2273 b3065e6
Настройки программы : cabac=1 / ref=11 / deblock=1:-3:-2 / analyse=0x3:0x133 / me=umh / subme=11 / psy=1 / psy_rd=1.00:0.00 / mixed_ref=1 / me_range=32 / chroma_me=1 / trellis=2 / 8x8dct=1 / cqm=0 / deadzone=21,11 / fast_pskip=0 / chroma_qp_offset=-2 / threads=6 / lookahead_threads=1 / sliced_threads=0 / nr=0 / decimate=0 / interlaced=0 / bluray_compat=0 / constrained_intra=0 / bframes=12 / b_pyramid=2 / b_adapt=2 / b_bias=0 / direct=3 / weightb=1 / open_gop=0 / weightp=2 / keyint=240 / keyint_min=23 / scenecut=40 / intra_refresh=0 / rc_lookahead=60 / rc=2pass / mbtree=0 / bitrate=1590 / ratetol=1.0 / qcomp=0.65 / qpmin=0 / qpmax=69 / qpstep=4 / cplxblur=20.0 / qblur=0.5 / vbv_maxrate=20000 / vbv_bufsize=25000 / nal_hrd=none / ip_ratio=1.35 / pb_ratio=1.25 / aq=2:1.00
Язык : Russian
Default : Да
Forced : Нет
Основные цвета : BT.709
Характеристики трансфера : BT.709
Аудио
Идентификатор : 2
Формат : AC-3
Формат/Информация : Audio Coding 3
Расширение режима : CM (complete main)
Параметр Endianness формата : Big
Идентификатор кодека : A_AC3
Продолжительность : 2 ч. 33 м.
Вид битрейта : Постоянный
Битрейт : 448 Кбит/сек
Каналы : 6 каналов
Расположение каналов : Front: L C R, Side: L R, LFE
Частота : 48,0 КГц
Битовая глубина : 16 бит
Метод сжатия : С потерями
Размер потока : 491 Мбайт (22%)
Заголовок : AVO (Ю.Сербин)
Язык : Russian
Default : Да
Forced : Нет
Текст #1
Идентификатор : 3
Формат : UTF-8
Идентификатор кодека : S_TEXT/UTF8
Идентификатор кодека/Информация : UTF-8 Plain Text
Заголовок : Russian (full)
Язык : Russian
Default : Нет
Forced : Нет
Текст #2
Идентификатор : 4
Формат : UTF-8
Идентификатор кодека : S_TEXT/UTF8
Идентификатор кодека/Информация : UTF-8 Plain Text
Заголовок : English (SDH)
Язык : English
Default : Нет
Forced : Нет

-

Скриншоты


-Дополнительная информация: -Приятного вам просмотра!
Скачать

Скачать торрент!

Как скачивать? · Что такое торрент? · Рейтинг и ограничения

Сайт не распространяет и не хранит электронные версии произведений, а лишь предоставляет доступ к создаваемому пользователями каталогу ссылок на торрент-файлы, которые содержат только списки хеш-сумм

[Профиль] [ЛС]
Показать сообщения:    
Ответить на тему

Текущее время: Сегодня 18:05

Часовой пояс: GMT + 4



Вы не можете начинать темы
Вы не можете отвечать на сообщения
Вы не можете редактировать свои сообщения
Вы не можете удалять свои сообщения
Вы не можете голосовать в опросах
Вы не можете прикреплять файлы к сообщениям
Вы не можете скачивать файлы