Жизнь во имя любви 2 / Aashiqui 2 (Мохит Сури / Mohit Suri) [2013, Индия, Драма, мелодрама, HDRip] MVO

Ответить на тему
 
Автор Сообщение

user ®

Стаж: 12 лет

Сообщений: 15092

Пост Пост: #1 от 17-Дек-2013 16:50

[Цитировать]

Жизнь во имя любви 2 / Aashiqui 2
Страна: Индия
Жанр: Драма, мелодрама
Год выпуска: 2013
Продолжительность: 02:12:39
Перевод: Любительский (многоголосый закадровый) IndianCinemaGroup
Cубтитры: русские (вшитые, только на тексты песен)
Режиссер: Мохит Сури / Mohit Suri
В ролях: Адитья Рой Капур, Шраддха Капур, Шаад Рандхава, Салил Ачария, Читрак Бандиопадхай, Бугс Бхаргава, Гадан Гупта, Шубханги Латкар
Описание: Карьера некогда успешного музыканта Рахула Джейкара (Адитья Рой Капур) стремительно идёт на спад из-за его пристрастия к алкоголю. Его верный друг и по совместительству менеджер, Вивек (Шаад Рандхава) всё ещё верит в талант Рахула и всячески пытается возродить его угасающую карьеру. После одного из своих неудачных концертов, Рахул идёт в бар, где видит выступление начинающей певицы Арохи (Шраддха Капур). Очарованный талантом девушки, Рахул посредством своих связей, пытается сделать Арохи новой звездой тысячелетия, что в конечном итоге с успехом ему удаётся. В процессе знакомства и совместной работы, молодые люди сближаются и между ними возникает любовь. В то время, как Арохи становится очень успешной, карьера Рахула подходит к своему печальному концу. Безработный певец начинает пить ещё больше и даже безграничная любовь Арохи не может спасти его от неизбежного разрушения. (с) Katrin (bollywoodtime)
Доп. информация: Исходник BDRip (1080p) (СПАСИБО! jasinpapa)
Перевод, редакция: Katrin, Анастасия [песни] (спасибо!)
Озвучка: IndianCinemaGroup (Спасибо!)
Сэмпл: http://multi-up.com/933166
Качество видео: HDRip
Формат видео: AVI
Видео: XviD build 50, 688x288 (2.39:1), 24.000 fps, 1438 kbps avg
Аудио: MPEG Layer 3, 48 kHz, 2/0 (L,R) ch, 128.00 kbps avg

MediaInfo

General
Complete name : D:\Zhizn.vo.imya.lubvi.2.2013.HDRip-Dego.avi
Format : AVI
Format/Info : Audio Video Interleave
File size : 1.46 GiB
Duration : 2h 12mn
Overall bit rate : 1 576 Kbps
Writing application : VirtualDubMod 1.5.10.2 (build 2540/release)
Writing library : VirtualDubMod build 2540/release
Video
ID : 0
Format : MPEG-4 Visual
Format profile : AdvancedSimple@L5
Format settings, BVOP : Yes
Format settings, QPel : No
Format settings, GMC : No warppoints
Format settings, Matrix : Default (MPEG)
Codec ID : XVID
Codec ID/Hint : XviD
Duration : 2h 12mn
Bit rate : 1 438 Kbps
Width : 688 pixels
Height : 288 pixels
Display aspect ratio : 2.35
Frame rate : 24.000 fps
Resolution : 24 bits
Colorimetry : 4:2:0
Scan type : Progressive
Bits/(Pixel*Frame) : 0.302
Stream size : 1.33 GiB (91%)
Writing library : XviD 1.2.1 (UTC 2008-12-04)
Audio
ID : 1
Format : MPEG Audio
Format version : Version 1
Format profile : Layer 3
Codec ID : 55
Codec ID/Hint : MP3
Duration : 2h 12mn
Bit rate mode : Constant
Bit rate : 128 Kbps
Channel(s) : 2 channels
Sampling rate : 48.0 KHz
Resolution : 16 bits
Stream size : 121 MiB (8%)
Alignment : Aligned on interleaves
Interleave, duration : 42 ms (1.00 video frame)
Interleave, preload duration : 504 ms
Writing library : LAME3.98r
Encoding settings : -m s -V 4 -q 2 -lowpass 17 -b 128

Скриншот c названием фильма

Скриншоты

Скачать

Скачать торрент! Жизнь во имя любви 2 / Aashiqui 2 (Мохит Сури / Mohit Suri) [2013, Индия, Драма, мелодрама, HDRip] MVO

Как скачивать? · Что такое торрент? · Рейтинг и ограничения

Сайт не распространяет и не хранит электронные версии произведений, а лишь предоставляет доступ к создаваемому пользователями каталогу ссылок на торрент-файлы, которые содержат только списки хеш-сумм

[Профиль] [ЛС]
Показать сообщения:    
Ответить на тему

Текущее время: Сегодня 16:27

Часовой пояс: GMT + 4



Вы не можете начинать темы
Вы не можете отвечать на сообщения
Вы не можете редактировать свои сообщения
Вы не можете удалять свои сообщения
Вы не можете голосовать в опросах
Вы не можете прикреплять файлы к сообщениям
Вы не можете скачивать файлы