Любовь повсюду / Engeyum Kadhal (Прабху Дева / Prabhu Deva) [2011, Индия, Романтическая комедия, DVDRip] MVO (Red Media) + Sub Rus (песни)

Ответить на тему
 
Автор Сообщение

user ®

Стаж: 12 лет

Сообщений: 15092

Пост Пост: #1 от 17-Дек-2013 02:40

[Цитировать]

Любовь повсюду / Engeyum Kadhal- Страна: Индия
Жанр: Комедия, романтика
Год выпуска: 2011
Продолжительность: 02:05:24-Язык: Тамили
Перевод: Профессиональный (многоголосый закадровый) - Red Media (Индия ТВ)
Cубтитры: Pусские (только песни) [перевод: Pearllysun Pearl, Киния, rost05]--Режиссер: Прабху Дева / Prabhu Deva-В ролях: Джаям Рави, Хансика Мотвани, Прабху Дева, Пракаш Радж, Суман, Раджу Сундарам--Описание: Богатый Буротинка Камал приезжает в Париж развлечься. Он вырос в Индии, но с западным менталитетом. А в Париже он встречает тамильскую девушку Каял. Она выросла на Западе с индийским менталитетом. Она верит в любовь, он верит в развлечения. Однако так сложились обстоятельства, что Каял заинтриговала ловеласа Камала и они стали общаться. Но очень скоро Камал уезжает в Индию. Проходит год. И вот уже они снова встретились. В этот раз Каял уже не собирается упускать свое счастье и воплощает в жизнь коварный план о том, как влюбить в себя Камала. Ну, а получилось ли это у нее, узнаете, посмотрев фильм. (Киня)-- | Трейлер | Сэмпл--Качество видео: DVDRip
Формат видео: AVI-Видео: XviD, 720x304, 23.976 fps, 1463 kbps
Аудио: 48 kHz, АС3, 2 ch, 192 kbps
Формат субтитров: hardsub (неотключаемые)-Доп. информация:
  • о субтитрах: вшитые в картинку, к песням
-Перевод субтитров: Pearllysun Pearl, Киния, rost05 (спасибо!)
Сведение аудио: soso4eg-Сэмпл / Sample-
-

Скриншоты с названием


-

Скриншоты


-

MI

Q:\[Релизы]\[DVDRip]\Lyubov.Povsyudu.2011.DVDRip.XviD.soso4eg.avi
General
Complete name : Q:\[Релизы]\[DVDRip]\Lyubov.Povsyudu.2011.DVDRip.XviD.soso4eg.avi
Format : AVI
Format/Info : Audio Video Interleave
File size : 1.46 GiB
Duration : 2h 5mn
Overall bit rate : 1 665 Kbps
Writing application : VirtualDubMod 1.5.10.3 | www.virtualdub-fr.org || (build 2550/release)
Video #0
ID : 0
Format : MPEG-4 Visual
Format profile : Advanced Simple@L5
Format settings, BVOP : 2
Format settings, QPel : No
Format settings, GMC : No warppoints
Format settings, Matrix : Default (H.263)
Codec ID : XVID
Codec ID/Hint : XviD
Duration : 2h 5mn
Bit rate : 1 463 Kbps
Width : 720 pixels
Height : 304 pixels
Display aspect ratio : 2.35:1
Frame rate : 23.976 fps
Color space : YUV
Chroma subsampling : 4:2:0
Bit depth : 8 bits
Scan type : Progressive
Compression mode : Lossy
Bits/(Pixel*Frame) : 0.279
Stream size : 1.28 GiB (88%)
Writing library : XviD 1.2.1 (UTC 2008-12-04)
Audio #1
ID : 1
Format : AC-3
Format/Info : Audio Coding 3
Mode extension : CM (complete main)
Codec ID : 2000
Duration : 2h 5mn
Bit rate mode : Constant
Bit rate : 192 Kbps
Channel(s) : 2 channels
Channel positions : Front: L R
Sampling rate : 48.0 KHz
Bit depth : 16 bits
Compression mode : Lossy
Stream size : 172 MiB (12%)
Alignment : Split accross interleaves
Interleave, duration : 42 ms (1.00 video frame)
Interleave, preload duration : 500 ms
Скачать

Скачать торрент! Любовь повсюду / Engeyum Kadhal (Прабху Дева / Prabhu Deva) [2011, Индия, Романтическая комедия, DVDRip] MVO (Red Media) + Sub Rus (песни)

Как скачивать? · Что такое торрент? · Рейтинг и ограничения

Сайт не распространяет и не хранит электронные версии произведений, а лишь предоставляет доступ к создаваемому пользователями каталогу ссылок на торрент-файлы, которые содержат только списки хеш-сумм

[Профиль] [ЛС]
Показать сообщения:    
Ответить на тему

Текущее время: Сегодня 03:20

Часовой пояс: GMT + 4



Вы не можете начинать темы
Вы не можете отвечать на сообщения
Вы не можете редактировать свои сообщения
Вы не можете удалять свои сообщения
Вы не можете голосовать в опросах
Вы не можете прикреплять файлы к сообщениям
Вы не можете скачивать файлы