Жизнь во имя любви 2 / Aashiqui 2 (Мохит Сури / Mohit Suri) [2013, Индия, Драма, музыкальный, романтика, HDRip] MVO (ICG) + Sub Rus + Original

Ответить на тему
 
Автор Сообщение

user ®

Стаж: 12 лет

Сообщений: 15092

Пост Пост: #1 от 16-Дек-2013 23:30

[Цитировать]

Жизнь во имя любви 2 / Aashiqui 2
-Страна: Индия
Жанр: Драма, музыкальный, романтика
Год выпуска: 2013
Продолжительность: 02:12:39--Язык: Хинди
Перевод: Любительский (многоголосый закадровый) - ICG
Cубтитры: Pусские (полные, песни) [перевод: Katrin, Анастасия (песни)]--Режиссер: Мохит Сури / Mohit Suri-В ролях: Адитья Рой Капур, Шраддха Капур, Шаад Рандхава, Салил Ачария, Читрак Бандиопадхай, Бугс Бхаргава, Гадан Гупта, Шубханги Латкар--Описание:Карьера некогда успешного музыканта Рахула Джейкара (Адитья Рой Капур) стремительно идёт на спад из-за его пристрастия к алкоголю. Его верный друг и по совместительству менеджер, Вивек (Шаад Рандхава) всё ещё верит в талант Рахула и всячески пытается возродить его угасающую карьеру. После одного из своих неудачных концертов, Рахул идёт в бар, где видит выступление начинающей певицы Арохи (Шраддха Капур). Очарованный талантом девушки, Рахул посредством своих связей, пытается сделать Арохи новой звездой тысячелетия, что в конечном итоге с успехом ему удаётся. В процессе знакомства и совместной работы, молодые люди сближаются и между ними возникает любовь. В то время, как Арохи становится очень успешной, карьера Рахула подходит к своему печальному концу. Безработный певец начинает пить ещё больше и даже безграничная любовь Арохи не может спасти его от неизбежного разрушения. (с) Katrin (bollywoodtime)-- | | Сэмпл--Качество видео: HDRip (исх. неизвестен)
Формат видео: AVI-Видео: XviD, 720x304, 1672 Кбит/с, 24 fps,
Аудио #1: AC3, 6 ch, 448 Кбит/с [Rus ]
Аудио #2: 48 kHz, АС3, 2 ch, 224 kbps [Hindi ]
Формат субтитров: softsub (SRT)-Доп. информация:
  • о субтитрах: внешние: #полные, #песни-Релиз и Bollywoodtime по заказу (спасибо!)
    Перевод, редакция: Katrin, Анастасия [песни] (спасибо!)--Сэмпл / Sample-- -
    -
    -

    Скриншот с названием:


    -

    Скриншоты:


    -

    MI

    Общее
    Полное имя : Q:\[Релизы]\[DVDRip]\Aashiqui-2.2013.HDRip.Rus.Original.ICG.BT.GF\Aashiqui-2.2013.HDRip.Rus.Original.ICG.BT.GF.avi
    Формат : AVI
    Формат/Информация : Audio Video Interleave
    Профиль формата : OpenDML
    Размер файла : 2,19 Гбайт
    Продолжительность : 2 ч. 12 м.
    Общий поток : 2362 Кбит/сек
    Программа кодирования : VirtualDubModRus 1.5.10.2 (build 2542/release)
    Библиотека кодирования : VirtualDubMod build 2542/release
    Видео
    Идентификатор : 0
    Формат : MPEG-4 Visual
    Профиль формата : Advanced Simple@L5
    Параметр BVOP формата : 1
    Параметр QPel формата : Нет
    Параметр GMC формата : Без точки перехода
    Параметр матрицы формата : Выборочная
    Идентификатор кодека : XVID
    Идентификатор кодека/Подсказка : XviD
    Продолжительность : 2 ч. 12 м.
    Битрейт : 1672 Кбит/сек
    Ширина : 720 пикселей
    Высота : 304 пикселя
    Соотношение сторон : 2,35:1
    Частота кадров : 24,000 кадра/сек
    Цветовое пространство : YUV
    Субдискретизация насыщенности : 4:2:0
    Битовая глубина : 8 бит
    Тип развёртки : Прогрессивная
    Метод сжатия : С потерями
    Бит/(Пиксели*Кадры) : 0.318
    Размер потока : 1,55 Гбайт (71%)
    Библиотека кодирования : XviD 64
    Аудио #1
    Идентификатор : 1
    Формат : AC-3
    Формат/Информация : Audio Coding 3
    Расширение режима : CM (complete main)
    Параметр Endianness формата : Big
    Идентификатор кодека : 2000
    Продолжительность : 2 ч. 12 м.
    Вид битрейта : Постоянный
    Битрейт : 448 Кбит/сек
    Каналы : 6 каналов
    Расположение каналов : Front: L C R, Side: L R, LFE
    Частота : 48,0 КГц
    Битовая глубина : 16 бит
    Метод сжатия : С потерями
    Размер потока : 425 Мбайт (19%)
    Выравнивание : Разделение по промежуткам
    Продолжительность промежутка : 42 мс. (1,00 видеокадр)
    Время предзагрузки промежутка : 500 мс.
    Аудио #2
    Идентификатор : 2
    Формат : AC-3
    Формат/Информация : Audio Coding 3
    Расширение режима : CM (complete main)
    Параметр Endianness формата : Big
    Идентификатор кодека : 2000
    Продолжительность : 2 ч. 12 м.
    Вид битрейта : Постоянный
    Битрейт : 224 Кбит/сек
    Каналы : 2 канала
    Расположение каналов : Front: L R
    Частота : 48,0 КГц
    Битовая глубина : 16 бит
    Метод сжатия : С потерями
    Размер потока : 213 Мбайт (9%)
    Выравнивание : Соединение по промежуткам
    Продолжительность промежутка : 42 мс. (1,00 видеокадр)
    Время предзагрузки промежутка : 512 мс.

    -
    -
Скачать

Скачать торрент! Жизнь во имя любви 2 / Aashiqui 2 (Мохит Сури / Mohit Suri) [2013, Индия, Драма, музыкальный, романтика, HDRip] MVO (ICG) + Sub Rus + Original

Как скачивать? · Что такое торрент? · Рейтинг и ограничения

Сайт не распространяет и не хранит электронные версии произведений, а лишь предоставляет доступ к создаваемому пользователями каталогу ссылок на торрент-файлы, которые содержат только списки хеш-сумм

[Профиль] [ЛС]
Показать сообщения:    
Ответить на тему

Текущее время: Сегодня 03:17

Часовой пояс: GMT + 4



Вы не можете начинать темы
Вы не можете отвечать на сообщения
Вы не можете редактировать свои сообщения
Вы не можете удалять свои сообщения
Вы не можете голосовать в опросах
Вы не можете прикреплять файлы к сообщениям
Вы не можете скачивать файлы