Дикость / Wild Things (Джон МакНотон / Jon McNaughton) [1998, США, триллер, криминал, детектив, BDRip 720p] [Unrated] Dub + MVO (Видеосервис) + AVO (Ю. Живов) + AVO (В. Королев) + Sub Rus, Eng + Original Eng

Ответить на тему
 
Автор Сообщение

user ®

Стаж: 7 лет 7 месяцев

Сообщений: 20008

Пост Пост: #1 от 16-Дек-2013 23:30

[Цитировать]

Дикость / Wild Things [Unrated]
Страна: США
Студия: Columbia Pictures
Жанр: триллер, криминал, детектив
Год выпуска: 1998
Продолжительность: 01:54:46
Перевод: Профессиональный (дублированный)
Перевод 2: Профессиональный (многоголосый закадровый) Видеосервис
Перевод 3: Авторский (одноголосый закадровый) Ю. Живов
Перевод 4: Авторский (одноголосый закадровый) В. Королев
Cубтитры: русские, английские
Оригинальная аудиодорожка: английский
Режиссер: Джон МакНотон / Jon McNaughton
В ролях: Кевин Бейкон, Мэтт Диллон, Нив Кэмпбелл, Тереза Расселл, Дениз Ричардс, Дафна Рубин-Вега, Роберт Вагнер, Билл Мюррей, Кэрри Снодгресс, Джефф Перри
Описание: Семнадцатилетняя Келли влюбляется в своего учителя Сэма. Она использует всевозможные способы, чтобы привлечь его внимание, но безрезультатно. А когда девушка не получает желаемого, она начинает мстить. Несостоявшаяся любовница обвиняет Сэма в изнасиловании.
Улик явно недостаточно, пока на помощь Келли не приходит ее подруга, которая готова давать показания. Но вскоре девушка понимает, что является лишь пешкой в нечестной игре...
Тип релиза: BDRip 720p
Контейнер: MKV
Видео: 1280x534 at 23.976 fps, x264@L4.1, 2pass, ~4650 kbps avg
Аудио: Russian: 48 kHz, AC3, 3/2 (L,C,R,l,r) + LFE ch, ~448.00 kbps avg |Дубляж|
Аудио 2: Russian: 48 kHz, DTS, 3/2 (L,C,R,l,r) + LFE ch, ~1510.00 kbps avg |Многоголосый закадровый, Видеосервис|
Аудио 3: Russian: 48 kHz, DTS, 3/2 (L,C,R,l,r) + LFE ch, ~1510.00 kbps avg |Одноголосый закадровый, Ю. Живов|
Аудио 4: Russian: 48 kHz, DTS, 3/2 (L,C,R,l,r) + LFE ch, ~1510.00 kbps avg |Одноголосый закадровый, В. Королев|
Аудио 5: English: 48 kHz, DTS, 3/2 (L,C,R,l,r) + LFE ch, ~1510.00 kbps avg
В 1-3 дорогах сделано 6 вставок с озвучкой В. Королева на расширенные сцены

MediaInfo

General
Unique ID : 212662879394766441176968547222528480454 (0x9FFD6178BD7D8D58962787235F6054C6)
Format : Matroska
Format version : Version 2
File size : 8.93 GiB
Duration : 1h 54mn
Overall bit rate : 11.1 Mbps
Movie name : HDCLUB
Encoded date : UTC 2013-02-15 21:40:06
Writing application : mkvmerge v5.7.0 ('The Whirlwind') built on Jul 8 2012 20:08:51
Writing library : libebml v1.2.3 + libmatroska v1.3.0
Video
ID : 1
Format : AVC
Format/Info : Advanced Video Codec
Format profile : High@L4.1
Format settings, CABAC : Yes
Format settings, ReFrames : 12 frames
Codec ID : V_MPEG4/ISO/AVC
Duration : 1h 54mn
Bit rate : 4 650 Kbps
Width : 1 280 pixels
Height : 534 pixels
Display aspect ratio : 2.40:1
Frame rate mode : Constant
Frame rate : 23.976 fps
Color space : YUV
Chroma subsampling : 4:2:0
Bit depth : 8 bits
Scan type : Progressive
Bits/(Pixel*Frame) : 0.284
Stream size : 3.55 GiB (40%)
Title : HDCLUB
Writing library : x264 core 129 r2245 bc13772
Encoding settings : cabac=1 / ref=12 / deblock=1:-3:-3 / analyse=0x3:0x133 / me=umh / subme=11 / psy=1 / psy_rd=1.05:0.00 / mixed_ref=1 / me_range=32 / chroma_me=1 / trellis=2 / 8x8dct=1 / cqm=0 / deadzone=21,11 / fast_pskip=0 / chroma_qp_offset=-2 / threads=12 / lookahead_threads=2 / sliced_threads=0 / nr=0 / decimate=1 / interlaced=0 / bluray_compat=0 / constrained_intra=0 / bframes=9 / b_pyramid=2 / b_adapt=2 / b_bias=0 / direct=3 / weightb=1 / open_gop=0 / weightp=2 / keyint=250 / keyint_min=25 / scenecut=40 / intra_refresh=0 / rc_lookahead=40 / rc=2pass / mbtree=1 / bitrate=4650 / ratetol=1.0 / qcomp=0.70 / qpmin=0 / qpmax=69 / qpstep=4 / cplxblur=20.0 / qblur=0.5 / vbv_maxrate=50000 / vbv_bufsize=62500 / nal_hrd=none / ip_ratio=1.30 / aq=1:1.00
Language : English
Default : Yes
Forced : No
Audio #1
ID : 2
Format : AC-3
Format/Info : Audio Coding 3
Mode extension : CM (complete main)
Format settings, Endianness : Big
Codec ID : A_AC3
Duration : 1h 54mn
Bit rate mode : Constant
Bit rate : 448 Kbps
Channel count : 6 channels
Channel positions : Front: L C R, Side: L R, LFE
Sampling rate : 48.0 KHz
Bit depth : 16 bits
Compression mode : Lossy
Stream size : 368 MiB (4%)
Title : |Дубляж|
Language : Russian
Default : Yes
Forced : No
Audio #2
ID : 3
Format : DTS
Format/Info : Digital Theater Systems
Mode : 16
Format settings, Endianness : Big
Codec ID : A_DTS
Duration : 1h 54mn
Bit rate mode : Constant
Bit rate : 1 509 Kbps
Channel count : 6 channels
Channel positions : Front: L C R, Side: L R, LFE
Sampling rate : 48.0 KHz
Bit depth : 16 bits
Compression mode : Lossy
Stream size : 1.21 GiB (14%)
Title : |Многоголосый закадровый, Видеосервис|
Language : Russian
Default : No
Forced : No
Audio #3
ID : 4
Format : DTS
Format/Info : Digital Theater Systems
Mode : 16
Format settings, Endianness : Big
Codec ID : A_DTS
Duration : 1h 54mn
Bit rate mode : Constant
Bit rate : 1 509 Kbps
Channel count : 6 channels
Channel positions : Front: L C R, Side: L R, LFE
Sampling rate : 48.0 KHz
Bit depth : 16 bits
Compression mode : Lossy
Stream size : 1.21 GiB (14%)
Title : |Одноголосый закадровый, Ю. Живов|
Language : Russian
Default : No
Forced : No
Audio #4
ID : 5
Format : DTS
Format/Info : Digital Theater Systems
Mode : 16
Format settings, Endianness : Big
Codec ID : A_DTS
Duration : 1h 54mn
Bit rate mode : Constant
Bit rate : 1 509 Kbps
Channel count : 6 channels
Channel positions : Front: L C R, Side: L R, LFE
Sampling rate : 48.0 KHz
Bit depth : 16 bits
Compression mode : Lossy
Stream size : 1.21 GiB (14%)
Title : |Одноголосый закадровый, В. Королев|
Language : Russian
Default : No
Forced : No
Audio #5
ID : 6
Format : DTS
Format/Info : Digital Theater Systems
Mode : 16
Format settings, Endianness : Big
Codec ID : A_DTS
Duration : 1h 54mn
Bit rate mode : Constant
Bit rate : 1 509 Kbps
Channel count : 6 channels
Channel positions : Front: L C R, Side: L R, LFE
Sampling rate : 48.0 KHz
Bit depth : 16 bits
Compression mode : Lossy
Stream size : 1.21 GiB (14%)
Language : English
Default : No
Forced : No
Text #1
ID : 7
Format : UTF-8
Codec ID : S_TEXT/UTF8
Codec ID/Info : UTF-8 Plain Text
Language : Russian
Default : No
Forced : No
Text #2
ID : 8
Format : UTF-8
Codec ID : S_TEXT/UTF8
Codec ID/Info : UTF-8 Plain Text
Language : English
Default : No
Forced : No
Text #3
ID : 9
Format : UTF-8
Codec ID : S_TEXT/UTF8
Codec ID/Info : UTF-8 Plain Text
Title : SDH
Language : English
Default : No
Forced : No
Menu
00:00:00.000 : :00:00:00.000
00:03:55.318 : :00:03:55.318
00:13:35.022 : :00:13:35.022
00:19:46.351 : :00:19:46.351
00:26:08.650 : :00:26:08.650
00:32:33.785 : :00:32:33.785
00:40:53.325 : :00:40:53.325
00:51:34.299 : :00:51:34.299
00:59:59.971 : :00:59:59.971
01:06:33.364 : :01:06:33.364
01:13:38.956 : :01:13:38.956
01:20:09.304 : :01:20:09.304
01:28:21.254 : :01:28:21.254
01:31:48.836 : :01:31:48.836
01:34:44.929 : :01:34:44.929
01:42:09.790 : :01:42:09.790

Скриншоты




Скачать

Скачать торрент!

Как скачивать? · Что такое торрент? · Рейтинг и ограничения

Сайт не распространяет и не хранит электронные версии произведений, а лишь предоставляет доступ к создаваемому пользователями каталогу ссылок на торрент-файлы, которые содержат только списки хеш-сумм

[Профиль] [ЛС]
Показать сообщения:    
Ответить на тему

Текущее время: Сегодня 06:27

Часовой пояс: GMT + 4



Вы не можете начинать темы
Вы не можете отвечать на сообщения
Вы не можете редактировать свои сообщения
Вы не можете удалять свои сообщения
Вы не можете голосовать в опросах
Вы не можете прикреплять файлы к сообщениям
Вы не можете скачивать файлы