Мистер Судьба / Повороты судьбы / Мистер Дестини / Mr. Destiny (Джеймс Орр / James Orr) [1990, США, Комедия, WEB-DL] AVO (Алексей Михалев) + AVO (Алексей Мишин) + Sub Rus + Original Eng

Ответить на тему
 
Автор Сообщение

user ®

Стаж: 7 лет 7 месяцев

Сообщений: 20008

Пост Пост: #1 от 16-Дек-2013 23:30

[Цитировать]

Мистер Судьба / Повороты судьбы / Мистер Дестини / Mr. Destiny
Страна: США
Студия: Touchstone Pictures
Жанр: Комедия
Год выпуска: 1990
Продолжительность: 01:50:28
Перевод: Авторский (одноголосый закадровый) Алексей Михалев
Перевод 2: Авторский (одноголосый закадровый) Алексей Мишин
Перевод 3:Профессиональный (полное дублирование)
Перевод 4:Профессиональный (многоголосый, закадровый) R5, "Видеосервис"
Перевод 5:Профессиональный (многоголосый, закадровый) СТС
Cубтитры: русские, английские
Оригинальная аудиодорожка: английский
Режиссер: Джеймс Орр / James Orr
В ролях: Джеймс Белуши, Линда Хэмилтон, Майкл Кейн, Джон Ловиц, Харт Бочнер, Билл МакКатчен, Рене Руссо, Джей О. Сандерс, Мори Чайкин, Пэт Корли
Описание: У простого служащего Ларри ломается машина. Он останавливается у придорожного кафе и в ожидании помощи решает пропустить стаканчик. Ларри жалуется бармену на свою неудавшуюся жизнь: если бы все сложилось иначе…Таинственный человек за стойкой молча выслушал его историю. С этого момента судьба Ларри полностью изменилась. Теперь он — один из управляющих преуспевающей фирмы, у него роскошные автомобили и красавица жена. У счастливчика осталось только одно желание… вернуться в прошлое.
Сэмпл:http://sendfile.su/910434
Качество видео:WEB-DL
Формат видео: MKV
Видео: MPEG4 Video (H264) 1280x690 3986 Кбит/сек 23.976fps
Аудио: Dolby AC3 48000Hz 6ch 384kbps Алексей Михалев
Аудио 2: Dolby AC3 48000Hz 2ch 192kbps Алексей Мишин
Аудио 3: Dolby AC3 48000Hz 2ch 192kbps Дубляж
Аудио 4: Dolby AC3 48000Hz 2ch 192kbps "Видеосервис"
Аудио 5: Dolby AC3 48000Hz 2ch 192kbps СТС
Аудио 6: Dolby AC3 48000Hz 6ch 384kbps
Формат субтитров: UTF-8 SRT

MediaInfo

Общее
Уникальный идентификатор : 209085998909751582060628590968563644294 (0x9D4C7FA5E75DFD8081AF3111C0713786)
Полное имя : F:\films\Mr.Destiny.1990.720p.WEB-DL.DD5.1.H.264 .mkv
Формат : Matroska
Версия формата : Version 2
Размер файла : 4,35 Гбайт
Продолжительность : 1 ч. 50 м.
Общий поток : 5634 Кбит/сек
Дата кодирования : UTC 2013-12-15 17:24:47
Программа кодирования : mkvmerge v4.0.0 ('The Stars were mine') збірка від Jun 6 2010 16:18:42
Библиотека кодирования : libebml v1.0.0 + libmatroska v1.0.0
TITLE : Mr. Destiny
ARTIST : James Belushi, Michael Caine, Linda Hamilton, Jon Lovitz, Rene Russo, Courteney Cox, Hart Bochner, Bill McCutcheon
ACTOR : James Belushi, Michael Caine, Linda Hamilton, Jon Lovitz, Rene Russo, Courteney Cox, Hart Bochner, Bill McCutcheon
DIRECTOR : James Orr
PRODUCER : Jim Cruickshank, Susan B. Landau, Laurence Mark, James Orr
SCREENPLAY_BY : James Orr, Jim Cruickshank
GENRE : Fantasy, Comedy, Science Fiction, Romance
DATE_RELEASED : 1990-10-12
DATE_RELEASE : 1990-10-12
CONTENT_TYPE : Movie
SYNOPSIS : Larry Burrows is unhappy and feels powerless over his life. He believes his entire life could have turned out differently had he not missed that shot in a baseball game when was a kid. One night he meets this mysterious man, who could change his fate by offering him that alternative life he always dreamed of. But as Burrows embarks on this journey of self discovery he realises that even this new life has its problems and drawbacks..
LAW_RATING : PG-13
Видео
Идентификатор : 1
Формат : AVC
Формат/Информация : Advanced Video Codec
Профиль формата : High@L3.1
Параметр CABAC формата : Нет
Параметр ReFrames формата : 2 кадра
Идентификатор кодека : V_MPEG4/ISO/AVC
Продолжительность : 1 ч. 50 м.
Битрейт : 3985 Кбит/сек
Ширина : 1280 пикселей
Высота : 690 пикселей
Соотношение сторон : 1,85:1
Режим частоты кадров : Постоянный
Частота кадров : 23,976 кадра/сек
Цветовое пространство : YUV
Субдискретизация насыщенности : 4:2:0
Битовая глубина : 8 бит
Тип развёртки : Прогрессивная
Бит/(Пиксели*Кадры) : 0.188
Размер потока : 3,08 Гбайт (71%)
Язык : English
Default : Нет
Forced : Нет
Основные цвета : BT.709
Характеристики трансфера : BT.709
Коэффициенты матрицы : BT.709
Аудио #1
Идентификатор : 2
Формат : AC-3
Формат/Информация : Audio Coding 3
Расширение режима : CM (complete main)
Параметр Endianness формата : Big
Идентификатор кодека : A_AC3
Продолжительность : 1 ч. 50 м.
Вид битрейта : Постоянный
Битрейт : 384 Кбит/сек
Каналы : 6 каналов
Расположение каналов : Front: L C R, Side: L R, LFE
Частота : 48,0 КГц
Битовая глубина : 16 бит
Метод сжатия : С потерями
Размер потока : 303 Мбайт (7%)
Заголовок : AC3 5.1 AVO Алексей Михалев
Язык : Russian
Default : Нет
Forced : Да
Аудио #2
Идентификатор : 3
Формат : AC-3
Формат/Информация : Audio Coding 3
Расширение режима : CM (complete main)
Параметр Endianness формата : Big
Идентификатор кодека : A_AC3
Продолжительность : 1 ч. 50 м.
Вид битрейта : Постоянный
Битрейт : 192 Кбит/сек
Каналы : 2 канала
Расположение каналов : Front: L R
Частота : 48,0 КГц
Битовая глубина : 16 бит
Метод сжатия : С потерями
Размер потока : 152 Мбайт (3%)
Заголовок : AC3 2.0 AVO Алексей Мишин
Язык : Russian
Default : Нет
Forced : Нет
Аудио #3
Идентификатор : 4
Формат : AC-3
Формат/Информация : Audio Coding 3
Расширение режима : CM (complete main)
Параметр Endianness формата : Big
Идентификатор кодека : A_AC3
Продолжительность : 1 ч. 50 м.
Вид битрейта : Постоянный
Битрейт : 192 Кбит/сек
Каналы : 2 канала
Расположение каналов : Front: L R
Частота : 48,0 КГц
Битовая глубина : 16 бит
Метод сжатия : С потерями
Размер потока : 152 Мбайт (3%)
Заголовок : AC3 2.0 Dubl
Язык : Russian
Default : Нет
Forced : Нет
Аудио #4
Идентификатор : 5
Формат : AC-3
Формат/Информация : Audio Coding 3
Расширение режима : CM (complete main)
Параметр Endianness формата : Big
Идентификатор кодека : A_AC3
Продолжительность : 1 ч. 50 м.
Вид битрейта : Постоянный
Битрейт : 192 Кбит/сек
Каналы : 2 канала
Расположение каналов : Front: L R
Частота : 48,0 КГц
Битовая глубина : 16 бит
Метод сжатия : С потерями
Размер потока : 152 Мбайт (3%)
Заголовок : AC3 2.0 MVO
Язык : Russian
Default : Нет
Forced : Нет
Аудио #5
Идентификатор : 6
Формат : AC-3
Формат/Информация : Audio Coding 3
Расширение режима : CM (complete main)
Параметр Endianness формата : Big
Идентификатор кодека : A_AC3
Продолжительность : 1 ч. 50 м.
Вид битрейта : Постоянный
Битрейт : 192 Кбит/сек
Каналы : 2 канала
Расположение каналов : Front: L R
Частота : 48,0 КГц
Битовая глубина : 16 бит
Метод сжатия : С потерями
Размер потока : 152 Мбайт (3%)
Заголовок : AC3 2.0 MVO СТС
Язык : Russian
Default : Нет
Forced : Нет
Аудио #6
Идентификатор : 7
Формат : AC-3
Формат/Информация : Audio Coding 3
Расширение режима : CM (complete main)
Параметр Endianness формата : Big
Идентификатор кодека : A_AC3
Продолжительность : 1 ч. 50 м.
Вид битрейта : Постоянный
Битрейт : 384 Кбит/сек
Каналы : 6 каналов
Расположение каналов : Front: L C R, Side: L R, LFE
Частота : 48,0 КГц
Битовая глубина : 16 бит
Метод сжатия : С потерями
Размер потока : 303 Мбайт (7%)
Заголовок : AC3 5.1 Original
Язык : English
Default : Нет
Forced : Нет
Текст #1
Идентификатор : 8
Формат : UTF-8
Идентификатор кодека : S_TEXT/UTF8
Идентификатор кодека/Информация : UTF-8 Plain Text
Заголовок : SRT
Язык : Russian
Default : Нет
Forced : Нет
Текст #2
Идентификатор : 9
Формат : UTF-8
Идентификатор кодека : S_TEXT/UTF8
Идентификатор кодека/Информация : UTF-8 Plain Text
Заголовок : SRT
Язык : English
Default : Нет
Forced : Нет
Меню
00:00:00.000 : en:Program Starts / Mr. Destiny
00:13:17.000 : en:"Lose Something Burrows?"
00:21:03.000 : en:"Spilt Milk"
00:29:52.000 : en:"Welcome To Your New Life"
00:41:14.000 : en:Happy Birthday L.J.
00:48:44.000 : en:Tee Time
00:59:32.000 : en:"But L.J."
01:09:51.000 : en:"What Was The Song?"
01:22:52.000 : en:"Larry Who Is She?"
01:29:49.000 : en:Don't Sign Mr. Hansen
01:39:46.000 : en:Happy Birthday Larry
01:44:27.000 : en:End Credits

Скриншот c названием фильма

Скриншоты

Скачать

Скачать торрент!

Как скачивать? · Что такое торрент? · Рейтинг и ограничения

Сайт не распространяет и не хранит электронные версии произведений, а лишь предоставляет доступ к создаваемому пользователями каталогу ссылок на торрент-файлы, которые содержат только списки хеш-сумм

[Профиль] [ЛС]
Показать сообщения:    
Ответить на тему

Текущее время: Сегодня 06:27

Часовой пояс: GMT + 4



Вы не можете начинать темы
Вы не можете отвечать на сообщения
Вы не можете редактировать свои сообщения
Вы не можете удалять свои сообщения
Вы не можете голосовать в опросах
Вы не можете прикреплять файлы к сообщениям
Вы не можете скачивать файлы