Застрял в любви / Stuck in Love (Джош Бун / Josh Boone) [2012, США, драма, мелодрама, комедия, BDRip 720p] MVO (Victory Films) + Sub Rus, Eng + Original Eng

Ответить на тему
 
Автор Сообщение

user ®

Стаж: 7 лет 7 месяцев

Сообщений: 20008

Пост Пост: #1 от 16-Дек-2013 23:30

[Цитировать]

Застрял в любви / Stuck in Love«A story of first loves and second chances»- Выпущено: США / Informant Media, MICA Entertainment
Жанр: драма, мелодрама, комедия
Год выпуска: 2012
Продолжительность: 01:36:52
Перевод: Любительский (многоголосый закадровый) {Victory Films - перевод Logan Lerman World и Lily Collins Source}
Cубтитры: русские (Notabenoid), английские
Оригинальная аудиодорожка: английский
-Режиссер: Джош Бун / Josh Boone
В ролях: Лили Коллинз, Логан Лерман, Кристен Белл, Дженнифер Коннелли, Стивен Кинг, Нат Вулф, Лиана Либерато, Грег Киннер, Спенсер Бреслин, Патрик Шварценеггер
-Описание: Сюжет фильма сосредоточен на запутанных отношениях между известным новеллистом Биллом Борджес, его бывшей женой и их детьми — дочерью-студенткой Самантой и сыном-тинейджером.- (1 мин)-Тип релиза: BDRip 720p / Исходник - Stuck.In.Love.2012.1080p.BluRay.AVC.TrueHD.5.1-PublicHD /
Контейнер: MKV
Видео: AVC, 1280x720 (16:9) at 23.976 fps, AVC at 3233 kbps avg, 0.143 bit/pixel
Аудио #1: Russian - AC3 Dolby Digital, 3/2 (L,C,R,l,r) + LFE ch, 48 kHz, ~640.00 kbps |MVO, Victory Films|
Аудио #2: English - AC3 Dolby Digital, 3/2 (L,C,R,l,r) + LFE ch, 48 kHz, ~640.00 kbps |Original|
Аудио #3: English - AC3 Dolby Digital, 2/0, 48 kHz, ~192.00 kbps |Commentary|
Формат субтитров: softsub (SRT)
Сохранены оригинальные чаптеры как на Blu-Ray.
За предоставленный материал для дороги выражаю благодарность Андрею Питерскому !
-Автор рипа:

MediaInfo

General
Unique ID                                : 214434835153128864918021797111925445332 (0xA152A5A2B790A580A03180FF1E0A12D4)
Complete name                            : Stuck.in.Love.2012.720p.BluRay.x264-LEONARDO.mkv
Format                                   : Matroska
Format version                           : Version 2
File size                                : 3.19 GiB
Duration                                 : 1h 36mn
Overall bit rate                         : 4 708 Kbps
Movie name                               : -=LEONARDO=-
Encoded date                             : UTC 2013-12-15 20:52:50
Writing application                      : mkvmerge v5.5.0 ('Healer') built on Apr  6 2012 21:43:24
Writing library                          : libebml v1.2.3 + libmatroska v1.3.0
Video
ID                                       : 1
Format                                   : AVC
Format/Info                              : Advanced Video Codec
Format profile                           : High@L4.1
Format settings, CABAC                   : Yes
Format settings, ReFrames                : 8 frames
Codec ID                                 : V_MPEG4/ISO/AVC
Duration                                 : 1h 36mn
Bit rate                                 : 3 142 Kbps
Width                                    : 1 280 pixels
Height                                   : 720 pixels
Display aspect ratio                     : 16:9
Frame rate mode                          : Constant
Frame rate                               : 23.976 fps
Color space                              : YUV
Chroma subsampling                       : 4:2:0
Bit depth                                : 8 bits
Scan type                                : Progressive
Bits/(Pixel*Frame)                       : 0.142
Stream size                              : 2.13 GiB (67%)
Title                                    : Застрял в любви / Stuck in Love (2012)
Writing library                          : x264 core 125 r2208 d9d2288
Encoding settings                        : cabac=1 / ref=8 / deblock=1:-3:-3 / analyse=0x3:0x133 / me=umh / subme=11 / psy=1 / psy_rd=1.00:0.20 / mixed_ref=1 / me_range=32 / chroma_me=1 / trellis=2 / 8x8dct=1 / cqm=0 / deadzone=21,11 / fast_pskip=0 / chroma_qp_offset=-3 / threads=12 / lookahead_threads=2 / sliced_threads=0 / nr=0 / decimate=1 / interlaced=0 / bluray_compat=0 / constrained_intra=0 / bframes=8 / b_pyramid=2 / b_adapt=2 / b_bias=0 / direct=1 / weightb=1 / open_gop=0 / weightp=2 / keyint=250 / keyint_min=23 / scenecut=40 / intra_refresh=0 / rc=crf / mbtree=0 / crf=17.5 / qcomp=0.60 / qpmin=0 / qpmax=69 / qpstep=4 / ip_ratio=1.40 / pb_ratio=1.30 / aq=2:1.00
Language                                 : English
Default                                  : Yes
Forced                                   : No
Audio #1
ID                                       : 2
Format                                   : AC-3
Format/Info                              : Audio Coding 3
Mode extension                           : CM (complete main)
Format settings, Endianness              : Big
Codec ID                                 : A_AC3
Duration                                 : 1h 36mn
Bit rate mode                            : Constant
Bit rate                                 : 640 Kbps
Channel count                            : 6 channels
Channel positions                        : Front: L C R, Side: L R, LFE
Sampling rate                            : 48.0 KHz
Bit depth                                : 16 bits
Compression mode                         : Lossy
Stream size                              : 443 MiB (14%)
Title                                    : MVO [Victory Films]
Language                                 : Russian
Default                                  : Yes
Forced                                   : No
Audio #2
ID                                       : 3
Format                                   : AC-3
Format/Info                              : Audio Coding 3
Mode extension                           : CM (complete main)
Format settings, Endianness              : Big
Codec ID                                 : A_AC3
Duration                                 : 1h 36mn
Bit rate mode                            : Constant
Bit rate                                 : 640 Kbps
Channel count                            : 6 channels
Channel positions                        : Front: L C R, Side: L R, LFE
Sampling rate                            : 48.0 KHz
Bit depth                                : 16 bits
Compression mode                         : Lossy
Stream size                              : 443 MiB (14%)
Language                                 : English
Default                                  : No
Forced                                   : No
Audio #3
ID                                       : 4
Format                                   : AC-3
Format/Info                              : Audio Coding 3
Mode extension                           : CM (complete main)
Format settings, Endianness              : Big
Codec ID                                 : A_AC3
Duration                                 : 1h 36mn
Bit rate mode                            : Constant
Bit rate                                 : 192 Kbps
Channel count                            : 2 channels
Channel positions                        : Front: L R
Sampling rate                            : 48.0 KHz
Bit depth                                : 16 bits
Compression mode                         : Lossy
Stream size                              : 133 MiB (4%)
Title                                    : Commentary
Language                                 : English
Default                                  : No
Forced                                   : No
Text #1
ID                                       : 5
Format                                   : UTF-8
Codec ID                                 : S_TEXT/UTF8
Codec ID/Info                            : UTF-8 Plain Text
Title                                    : Notabenoid
Language                                 : Russian
Default                                  : No
Forced                                   : No
Text #2
ID                                       : 6
Format                                   : UTF-8
Codec ID                                 : S_TEXT/UTF8
Codec ID/Info                            : UTF-8 Plain Text
Language                                 : English
Default                                  : No
Forced                                   : No
Menu
00:00:00.000                             : en:00:00:00.000
00:07:22.275                             : en:00:07:22.275
00:16:54.305                             : en:00:16:54.305
00:26:52.694                             : en:00:26:52.694
00:34:54.968                             : en:00:34:54.968
00:41:26.859                             : en:00:41:26.859
00:50:32.196                             : en:00:50:32.196
00:57:48.632                             : en:00:57:48.632
01:08:03.663                             : en:01:08:03.663
01:15:57.303                             : en:01:15:57.303
01:25:54.608                             : en:01:25:54.608
01:32:44.684                             : en:01:32:44.684

x264

x264 [info]: frame I:1203 Avg QP:14.83 size:130556
x264 [info]: frame P:29317 Avg QP:16.72 size: 40291
x264 [info]: frame B:108847 Avg QP:19.76 size: 9289
x264 [info]: consecutive B-frames: 2.1% 1.1% 7.7% 14.5% 26.7% 42.0% 2.1% 1.6% 2.3%
x264 [info]: mb I I16..4: 12.5% 59.2% 28.4%
x264 [info]: mb P I16..4: 0.9% 6.7% 1.7% P16..4: 30.8% 35.8% 13.0% 3.9% 0.7% skip: 6.5%
x264 [info]: mb B I16..4: 0.1% 0.4% 0.1% B16..8: 32.2% 16.0% 2.0% direct: 3.6% skip:45.7% L0:38.1% L1:45.4% BI:16.5%
x264 [info]: 8x8 transform intra:68.7% inter:40.4%
x264 [info]: coded y,uvDC,uvAC intra: 88.0% 82.6% 63.3% inter: 14.2% 9.0% 1.6%
x264 [info]: i16 v,h,dc,p: 22% 9% 10% 59%
x264 [info]: i8 v,h,dc,ddl,ddr,vr,hd,vl,hu: 13% 9% 7% 9% 12% 14% 11% 13% 13%
x264 [info]: i4 v,h,dc,ddl,ddr,vr,hd,vl,hu: 12% 9% 5% 9% 14% 15% 12% 12% 12%
x264 [info]: i8c dc,h,v,p: 39% 23% 21% 17%
x264 [info]: Weighted P-Frames: Y:2.4% UV:1.2%
x264 [info]: ref P L0: 47.1% 8.1% 21.4% 6.7% 6.2% 4.0% 4.0% 2.2% 0.3% 0.0%
x264 [info]: ref B L0: 83.4% 9.4% 3.3% 1.8% 1.1% 0.7% 0.4%
x264 [info]: ref B L1: 96.0% 4.0%
x264 [info]: kb/s:3233.39
Скачать

Скачать торрент!

Как скачивать? · Что такое торрент? · Рейтинг и ограничения

Сайт не распространяет и не хранит электронные версии произведений, а лишь предоставляет доступ к создаваемому пользователями каталогу ссылок на торрент-файлы, которые содержат только списки хеш-сумм

[Профиль] [ЛС]
Показать сообщения:    
Ответить на тему

Текущее время: Сегодня 03:59

Часовой пояс: GMT + 4



Вы не можете начинать темы
Вы не можете отвечать на сообщения
Вы не можете редактировать свои сообщения
Вы не можете удалять свои сообщения
Вы не можете голосовать в опросах
Вы не можете прикреплять файлы к сообщениям
Вы не можете скачивать файлы