Бастион / Rampart (Орен Моверман / Oren Moverman) [2011, США, триллер, драма, криминал, BDRip 1080p] DVO (Elrom) + Original eng + Sub rus, eng

Ответить на тему
 
Автор Сообщение

user ®

Стаж: 7 лет 7 месяцев

Сообщений: 20008

Пост Пост: #1 от 16-Дек-2013 23:30

[Цитировать]

Бастион / Rampart
Страна: США
Жанр: триллер, драма, криминал
Год выпуска: 2011
Продолжительность: 01:47:54
Перевод: Профессиональный (двухголосый закадровый) |
Cубтитры: русские (Elrom), английские
Оригинальная аудиодорожка: английский
Режиссер: Орен Моверман / Oren Moverman
В ролях: Вуди Харрельсон, Нед Битти, Бен Фостер, Энн Хеч, Айс Кьюб, Синтия Никсон, Сигурни Уивер, Робин Райт, Стив Бушеми, Джон Бернтал
Описание: В основу сюжета положен реальный скандал вокруг спецотдела полицейского департамента Лос-Анджелеса, когда более полусотни офицеров предстали перед внутренней администрацией по обвинению в коррупции и превышении должностных полномочий. Офицер, случайно втянутый в это громкое дело, всячески пытается восстановить свое доброе имя и репутацию...

Тип релиза: BDRip 1080p (от DON) | sample
Контейнер: MKV
Видео кодек: x264
Видео: AVC 1920x816 (2.35:1), 23.976 fps, ~9000 Kbps, 0.24 bit/pixel
Аудио #1: Russian AC3 2ch 48kHz 192Kbps | DVO Elrom
Аудио #2: English AC3 6ch 48kHz 640Kbps | Original
Формат субтитров: softsub (SRT)
Главы: есть

MediaInfo | x264

x264

x264 [info]: profile High, level 4.1
x264 [info]: frame I:891 Avg QP:16.55 size:157788
x264 [info]: frame P:33742 Avg QP:17.73 size: 71609
x264 [info]: frame B:120599 Avg QP:18.64 size: 39121
x264 [info]: consecutive B-frames: 2.2% 2.4% 4.1% 28.4% 16.7% 26.6% 11.2% 8.5%
encoded 155232 frames, 5.44 fps, 8988.82 kb/s
General
Complete name : E:\...\Rampart.2011.1080p.BluRay.x264.Rus.Eng-DON.mkv
Format : Matroska
Format version : Version 2
File size : 7.40 GiB
Duration : 1h 47mn
Overall bit rate : 9 823 Kbps
Movie name : Rampart.2011.1080p.BluRay.x264.Rus.Eng-DON
Encoded date : UTC 2013-12-16 18:12:13
Writing application : mkvmerge v6.5.0 ('Isn't she lovely') built on Oct 20 2013 12:50:05
Writing library : libebml v1.3.0 + libmatroska v1.4.1
Video
ID : 1
Format : AVC
Format/Info : Advanced Video Codec
Format profile : High@L4.1
Format settings, CABAC : Yes
Format settings, ReFrames : 4 frames
Codec ID : V_MPEG4/ISO/AVC
Duration : 1h 47mn
Bit rate : 9 000 Kbps
Width : 1 920 pixels
Height : 816 pixels
Display aspect ratio : 2.35:1
Frame rate mode : Constant
Frame rate : 23.976 fps
Color space : YUV
Chroma subsampling : 4:2:0
Bit depth : 8 bits
Scan type : Progressive
Bits/(Pixel*Frame) : 0.240
Stream size : 6.63 GiB (90%)
Title : Rampart (2011)
Writing library : x264 core 116 r2057 0ba8a9c
Encoding settings : cabac=1 / ref=3 / deblock=1:-3:-3 / analyse=0x3:0x133 / me=umh / subme=10 / psy=1 / psy_rd=1.00:0.00 / mixed_ref=1 / me_range=32 / chroma_me=1 / trellis=2 / 8x8dct=1 / cqm=0 / deadzone=21,11 / fast_pskip=0 / chroma_qp_offset=-2 / threads=18 / sliced_threads=0 / nr=0 / decimate=0 / interlaced=0 / bluray_compat=0 / constrained_intra=0 / bframes=7 / b_pyramid=2 / b_adapt=2 / b_bias=0 / direct=3 / weightb=1 / open_gop=0 / weightp=2 / keyint=250 / keyint_min=23 / scenecut=40 / intra_refresh=0 / rc_lookahead=40 / rc=2pass / mbtree=0 / bitrate=9000 / ratetol=1.0 / qcomp=0.65 / qpmin=0 / qpmax=40 / qpstep=4 / cplxblur=20.0 / qblur=0.5 / vbv_maxrate=50000 / vbv_bufsize=50000 / nal_hrd=none / ip_ratio=1.25 / pb_ratio=1.25 / aq=1:0.65
Language : English
Default : Yes
Forced : No
Audio #1
ID : 2
Format : AC-3
Format/Info : Audio Coding 3
Mode extension : CM (complete main)
Format settings, Endianness : Big
Codec ID : A_AC3
Duration : 1h 47mn
Bit rate mode : Constant
Bit rate : 192 Kbps
Channel(s) : 2 channels
Channel positions : Front: L R
Sampling rate : 48.0 KHz
Bit depth : 16 bits
Compression mode : Lossy
Stream size : 148 MiB (2%)
Title : DVO Elrom
Language : Russian
Default : Yes
Forced : No
Audio #2
ID : 3
Format : AC-3
Format/Info : Audio Coding 3
Mode extension : CM (complete main)
Format settings, Endianness : Big
Codec ID : A_AC3
Duration : 1h 47mn
Bit rate mode : Constant
Bit rate : 640 Kbps
Channel(s) : 6 channels
Channel positions : Front: L C R, Side: L R, LFE
Sampling rate : 48.0 KHz
Bit depth : 16 bits
Compression mode : Lossy
Stream size : 494 MiB (7%)
Title : Original
Language : English
Default : No
Forced : No
Text #1
ID : 4
Format : UTF-8
Codec ID : S_TEXT/UTF8
Codec ID/Info : UTF-8 Plain Text
Language : Russian
Default : No
Forced : No
Text #2
ID : 5
Format : UTF-8
Codec ID : S_TEXT/UTF8
Codec ID/Info : UTF-8 Plain Text
Language : English
Default : No
Forced : No
Menu
00:00:00.000 : en:Chapter 1
00:07:25.904 : en:Chapter 2
00:17:40.101 : en:Chapter 3
00:24:45.984 : en:Chapter 4
00:32:31.616 : en:Chapter 5
00:42:15.950 : en:Chapter 6
00:51:46.061 : en:Chapter 7
01:01:43.158 : en:Chapter 8
01:08:57.008 : en:Chapter 9
01:17:03.369 : en:Chapter 10
01:26:28.266 : en:Chapter 11
01:39:46.522 : en:Chapter 12

Скриншоты



Скачать

Скачать торрент!

Как скачивать? · Что такое торрент? · Рейтинг и ограничения

Сайт не распространяет и не хранит электронные версии произведений, а лишь предоставляет доступ к создаваемому пользователями каталогу ссылок на торрент-файлы, которые содержат только списки хеш-сумм

[Профиль] [ЛС]
Показать сообщения:    
Ответить на тему

Текущее время: Сегодня 01:17

Часовой пояс: GMT + 4



Вы не можете начинать темы
Вы не можете отвечать на сообщения
Вы не можете редактировать свои сообщения
Вы не можете удалять свои сообщения
Вы не можете голосовать в опросах
Вы не можете прикреплять файлы к сообщениям
Вы не можете скачивать файлы