Наследие / Наследство / Legacy (Пит Тревис / Pete Travis) [2013, Великобритания, шпионский триллер, драма, WEB-DLRip] Sub Rus + Original Eng

Ответить на тему
 
Автор Сообщение

user ®

Стаж: 7 лет 7 месяцев

Сообщений: 20008

Пост Пост: #1 от 16-Дек-2013 18:20

[Цитировать]

Наследие / Наследство / Legacy
Страна: Великобритания
Жанр: шпионский триллер, драма
Год выпуска: 2013
Продолжительность: 01:28:54
Перевод: Субтитры notabenoid под редакцией Antonio
Cубтитры: русские
Оригинальная аудиодорожка: английский
Режиссер: Пит Тревис / Pete Travis
В ролях: Ромола Гарай, Чарли Кокс, Эндрю Скотт, Оливия Грант, Джеральдин Джеймс, Саймон Расселл Бил, Кристиан МакКэй, Тесса Пик-Джонс, Ричард МакКейб, Барри Мартин
Описание: Действие фильма разворачивается в 1970-х годах в Лондоне, в разгар Холодной войны. Главный герой Чарльз только что вернулся из армии, и теперь он — молодой сотрудник секретной разведывательной британской организации Ми-6. Ему предстоит завербовать Виктора Козлова, который служит в посольстве СССР. Начальству Чарльза кажется, что этого человека можно без труда использовать в своих целях. Разбираясь в веренице интриг и любовниц, Чарли неожиданно узнаёт секретную информацию о собственном отце, и теперь его миссия находится под угрозой наряду со всем остальным, чем жил британский шпион.
Сэмпл: http://multi-up.com/
Качество видео: WEB-DLRip
Формат видео: AVI
Видео: DivX 5 720x400 25.00fps 753Kbps
Аудио: Dolby AC3 48000Hz stereo 192Kbps
Формат субтитров: softsub (SRT)

Фрагмент субтитров

1
00:00:00,108 --> 00:00:04,538
1974-ый год.
2
00:00:04,807 --> 00:00:11,140
В Великобритании самый серьёзный
кризис со времён Великой Депрессии.
3
00:00:11,823 --> 00:00:14,240
Трёхдневки, отключение электричества,
4
00:00:14,241 --> 00:00:18,879
забастовки и растущая инфляция
вызывают масштабные народные волнения.
5
00:00:18,880 --> 00:00:20,507
Разведывательная служба подозревает,
6
00:00:20,508 --> 00:00:25,936
что профсоюзные протесты
срежессированы Советским Союзом.
7
00:00:29,251 --> 00:00:33,471
Пимлико, Лондон
8
00:01:20,437 --> 00:01:23,699
[ НАСЛЕДИЕ ]
9
00:01:48,060 --> 00:01:52,270
Британия на грани.
Объявлено чрезвычайное положение.
10
00:01:52,980 --> 00:01:55,200
Держи, папаша.
11
00:01:56,100 --> 00:01:58,270
Британия на грани.
12
00:02:24,860 --> 00:02:27,379
Да, мы встречались
в прошлом году, в Лионе.
13
00:02:27,380 --> 00:02:29,560
Да. Конечно.
14
00:02:31,340 --> 00:02:32,619
У вас для меня сообщение?
15
00:02:32,620 --> 00:02:36,259
Дмитрий вернулся из Киева
с нужной нам информацией.
16
00:02:36,260 --> 00:02:40,339
Он встретится с вами в Амстердаме
у северных ворот Западного Парка.
17
00:02:40,340 --> 00:02:42,870
Убедитесь, что деньги
поступили на его счёт.
18
00:02:43,900 --> 00:02:45,779
Если к тому времени денег не будет,
19
00:02:45,780 --> 00:02:48,550
встреча сорвётся.
20
00:02:49,340 --> 00:02:52,190
Идёмте, девочки.

MediaInfo

General
Complete name : D:\TORRENTS\Legacy\Наследие.avi
Format : AVI
Format/Info : Audio Video Interleave
File size : 608 MiB
Duration : 1h 28mn
Overall bit rate : 956 Kbps
Video
ID : 0
Format : MPEG-4 Visual
Format profile : Simple@L1
Format settings, BVOP : No
Format settings, QPel : No
Format settings, GMC : No warppoints
Format settings, Matrix : Default (MPEG)
Codec ID : DX50
Codec ID/Hint : DivX 5
Duration : 1h 28mn
Bit rate : 754 Kbps
Width : 720 pixels
Height : 400 pixels
Display aspect ratio : 16:9
Frame rate : 25.000 fps
Color space : YUV
Chroma subsampling : 4:2:0
Bit depth : 8 bits
Scan type : Progressive
Compression mode : Lossy
Bits/(Pixel*Frame) : 0.105
Stream size : 479 MiB (79%)
Writing library : Lavc53.42.0
Audio
ID : 1
Format : AC-3
Format/Info : Audio Coding 3
Mode extension : CM (complete main)
Format settings, Endianness : Big
Codec ID : 2000
Duration : 1h 28mn
Source duration : 1h 28mn
Bit rate mode : Constant
Bit rate : 192 Kbps
Channel(s) : 2 channels
Channel positions : Front: L R
Sampling rate : 48.0 KHz
Bit depth : 16 bits
Compression mode : Lossy
Stream size : 122 MiB (20%)
Alignment : Aligned on interleaves
Interleave, duration : 40 ms (1.00 video frame)

Скриншот c названием фильма

Скриншоты

Скачать

Скачать торрент!

Как скачивать? · Что такое торрент? · Рейтинг и ограничения

Сайт не распространяет и не хранит электронные версии произведений, а лишь предоставляет доступ к создаваемому пользователями каталогу ссылок на торрент-файлы, которые содержат только списки хеш-сумм

[Профиль] [ЛС]
Показать сообщения:    
Ответить на тему

Текущее время: Сегодня 19:39

Часовой пояс: GMT + 4



Вы не можете начинать темы
Вы не можете отвечать на сообщения
Вы не можете редактировать свои сообщения
Вы не можете удалять свои сообщения
Вы не можете голосовать в опросах
Вы не можете прикреплять файлы к сообщениям
Вы не можете скачивать файлы