Молодой детектив Ди: Восстание морского дракона / Young Detective Dee: Rise of the Sea Dragon (Цуй Харк / Tsui Hark) [2013, Китай, Гонконг, боевик, триллер, детектив, HDRip] DVO ([GREEN TEA])

Ответить на тему
 
Автор Сообщение

user ®

Стаж: 11 лет

Сообщений: 15151

Пост Пост: #1 от 16-Дек-2013 04:15

[Цитировать]

Молодой детектив Ди: Восстание морского дракона / Young Detective Dee: Rise of the Sea Dragon
Страна: Китай, Гонконг
Жанр: боевик, триллер, детектив
Год выпуска: 2013
Продолжительность: 02:08:48
Перевод: Любительский (двухголосый закадровый) [GREEN TEA]
Cубтитры: Корейские
Режиссер: Цуй Харк / Tsui Hark
В ролях: Анджела Бейби, Марк Чао, Чэнь Кунь, Уильям Фэн, Дун Ху, Ким Бом, Карина Лау, Линь Гэн Синь, Цзинцзин Ма
Описание: Посреди океана огромное судно терпит крушение. Ученые не понимают, как же это могло случится, ведь в период крушения судна, не было никакого серьезного шторма или же каких-то других катаклизмов. В общем, получается, что данный случай просто невозможно объяснить. Что же все таки случилось с кораблем? Что случилось со всеми членами нашей команды? На этот сложный вопрос должен будет ответить один молодой детектив, зовут которого Ди. Для того, чтобы ответить на этот сложный и страшный вопрос, ему потребуется отправиться к месту крушения этого судна. Парень совсем не догадывается о том, что в водах океана ожило какое-то чудовище. Получается так, что это чудовище только и ждет того, чтобы на эту территорию прибыл еще один корабль. Ведь именно за счет кораблей это древнее чудовище просто питается. Чудовище сможет разрушить любой корабль...
Сэмпл: http://multi-up.com/932797
Качество видео: HDRip
Формат видео: AVI
Видео: XviD, 720x304, 2.35:1, 29,970 кадров/сек, 1650 Кбит/сек
Аудио: MPEG Audio Layer 3, 2 channel, 48,0 КГц, 192 Кбит/сек
Формат субтитров: hardsub (неотключаемые)

MediaInfo

Видео
Идентификатор : 0
Формат : MPEG-4 Visual
Профиль формата : Advanced Simple@L5
Параметр BVOP формата : 1
Параметр QPel формата : Нет
Параметр GMC формата : Без точки перехода
Параметр матрицы формата : Выборочная
Идентификатор кодека : XVID
Идентификатор кодека/Подсказка : XviD
Продолжительность : 2 ч. 8 м.
Битрейт : 1650 Кбит/сек
Ширина : 720 пикселей
Высота : 304 пикселя
Соотношение сторон : 2,35:1
Частота кадров : 29,970 кадров/сек
Цветовое пространство : YUV
Субдискретизация насыщенности : 4:2:0
Битовая глубина : 8 бит
Тип развёртки : Прогрессивная
Метод сжатия : С потерями
Бит/(Пиксели*Кадры) : 0.252
Размер потока : 1,48 Гбайт (89%)
Библиотека кодирования : XviD 1.2.1 (UTC 2008-12-04)
Аудио
Идентификатор : 1
Формат : MPEG Audio
Версия формата : Version 1
Профиль формата : Layer 3
Режим : Joint stereo
Идентификатор кодека : 55
Идентификатор кодека/Подсказка : MP3
Продолжительность : 2 ч. 8 м.
Вид битрейта : Постоянный
Битрейт : 192 Кбит/сек
Каналы : 2 канала
Частота : 48,0 КГц
Метод сжатия : С потерями
Размер потока : 177 Мбайт (10%)
Выравнивание : Разделение по промежуткам
Продолжительность промежутка : 33 мс. (1,00 видеокадр)
Время предзагрузки промежутка : 500 мс.

Скриншот c названием фильма

Скриншоты

Скачать

Скачать торрент! Молодой детектив Ди: Восстание морского дракона / Young Detective Dee: Rise of the Sea Dragon (Цуй Харк / Tsui Hark) [2013, Китай, Гонконг, боевик, триллер, детектив, HDRip] DVO ([GREEN TEA])

Как скачивать? · Что такое торрент? · Рейтинг и ограничения

Сайт не распространяет и не хранит электронные версии произведений, а лишь предоставляет доступ к создаваемому пользователями каталогу ссылок на торрент-файлы, которые содержат только списки хеш-сумм

[Профиль] [ЛС]
Показать сообщения:    
Ответить на тему

Текущее время: Сегодня 12:10

Часовой пояс: GMT + 4



Вы не можете начинать темы
Вы не можете отвечать на сообщения
Вы не можете редактировать свои сообщения
Вы не можете удалять свои сообщения
Вы не можете голосовать в опросах
Вы не можете прикреплять файлы к сообщениям
Вы не можете скачивать файлы