Призрак оперы / The Phantom of the Opera (Дуайт Х. Литтл / Dwight H. Little) [1989, США, ужасы, драма, музыка, BDRemux 1080p] AVO x2 + Original eng + Sub eng

Ответить на тему
 
Автор Сообщение

user ®

Стаж: 7 лет 7 месяцев

Сообщений: 20008

Пост Пост: #1 от 15-Дек-2013 18:45

[Цитировать]

Призрак оперы / The Phantom of the Opera
Страна: США
Жанр: ужасы, драма, музыка
Год выпуска: 1989
Продолжительность: 01:33:03
Перевод#1: Авторский (одноголосый закадровый), А. Гаврилов
Перевод#2: Авторский (одноголосый закадровый), М. Иванов
Cубтитры: английские
Оригинальная аудиодорожка: английский
Режиссер: Дуайт Х. Литтл / Dwight H. Little
В ролях: Роберт Инглунд, Джилл Шолен, Алекс Хайд-Вайт, Билл Найи, Стефани Лоуренс, Теренс Харви, Нэйтан Льюис, Питер Клэпэм, Молли Шеннон, Эмма Роусон
Описание: Талантливый музыкант продал свою душу дьяволу, чтобы публика полюбила его. И дьявол выполнил его желание — публика полюбила его, но только за его музыку, ибо лицо композитора дьявол жутко обезобразил. Убить несчастного можно, только уничтожив ноты его произведений
Молодая певица Кристин Дэй находит в библиотеке полуистлевшие и опаленные огнем отрывки из оперы, поет их на прослушивании и переносится в Лондон XIX века, где становится объектом страстной любви этого самого музыканта, называемого всеми Призраком Оперы. Обезображенный, он вынужден скрывать свое лицо под маской, а в сердце горит огонь желания — именно эта певица является вдохновением, необходимым для написания его музыки
Он убивает всех, кто стоит на пути ее карьеры, убивает зверски, сдирая с жертв кожу. Только с ней он должен стать одним целым. Но Кристин любит другого...

Тип релиза: BDRemux 1080p | The Phantom of the Opera 1989 1080p GER Blu-ray AVC DTS-HD MA 2.0-BDA @ HDBits | sample
Контейнер: MKV
Видео: MPEG-4 AVC 1920x1080 (16:9), 23.976 fps, ~20 Mbps
Аудио #1: Russian AC3 2ch 48kHz 192Kbps | AVO Гаврилов
Аудио #2: Russian AC3 2ch 48kHz 192Kbps | AVO Иванов
Аудио #3: English DTS-HD MA / 2.0 / 48 kHz / 1675 kbps / 16-bit (DTS Core: 2.0 / 48 kHz / 1509 kbps / 16-bit) | Original
Формат субтитров: softsub (SRT)
Главы: есть

MediaInfo

General
Complete name : D:\...\The.Phantom.of.the.Opera.1989.1080p.Remux.AVC.Rus.Eng.mkv
Format : Matroska
Format version : Version 2
File size : 14.3 GiB
Duration : 1h 33mn
Overall bit rate mode : Variable
Overall bit rate : 22.1 Mbps
Movie name : The.Phantom.of.the.Opera.1989.1080p.Remux.AVC.Rus.Eng
Encoded date : UTC 2013-12-14 16:25:18
Writing application : mkvmerge v6.5.0 ('Isn't she lovely') built on Oct 20 2013 12:50:05
Writing library : libebml v1.3.0 + libmatroska v1.4.1
Video
ID : 1
Format : AVC
Format/Info : Advanced Video Codec
Format profile : High@L4.1
Format settings, CABAC : Yes
Format settings, ReFrames : 4 frames
Codec ID : V_MPEG4/ISO/AVC
Duration : 1h 33mn
Bit rate mode : Variable
Bit rate : 19.7 Mbps
Maximum bit rate : 35.0 Mbps
Width : 1 920 pixels
Height : 1 080 pixels
Display aspect ratio : 16:9
Frame rate mode : Constant
Frame rate : 23.976 fps
Standard : NTSC
Color space : YUV
Chroma subsampling : 4:2:0
Bit depth : 8 bits
Scan type : Progressive
Bits/(Pixel*Frame) : 0.396
Stream size : 12.8 GiB (89%)
Title : The Phantom of the Opera (1989)
Language : English
Default : Yes
Forced : No
Color primaries : BT.709
Transfer characteristics : BT.709
Matrix coefficients : BT.709
Audio #1
ID : 2
Format : AC-3
Format/Info : Audio Coding 3
Mode extension : CM (complete main)
Format settings, Endianness : Big
Codec ID : A_AC3
Duration : 1h 33mn
Bit rate mode : Constant
Bit rate : 192 Kbps
Channel(s) : 2 channels
Channel positions : Front: L R
Sampling rate : 48.0 KHz
Bit depth : 16 bits
Compression mode : Lossy
Stream size : 128 MiB (1%)
Title : AVO Gavrilov
Language : Russian
Default : Yes
Forced : No
Audio #2
ID : 3
Format : AC-3
Format/Info : Audio Coding 3
Mode extension : CM (complete main)
Format settings, Endianness : Big
Codec ID : A_AC3
Duration : 1h 33mn
Bit rate mode : Constant
Bit rate : 192 Kbps
Channel(s) : 2 channels
Channel positions : Front: L R
Sampling rate : 48.0 KHz
Bit depth : 16 bits
Compression mode : Lossy
Stream size : 128 MiB (1%)
Title : AVO Ivanov
Language : Russian
Default : No
Forced : No
Audio #3
ID : 4
Format : DTS
Format/Info : Digital Theater Systems
Format profile : MA / Core
Codec ID : A_DTS
Duration : 1h 33mn
Bit rate mode : Variable
Bit rate : 1 573 Kbps / 1 510 Kbps
Channel(s) : 2 channels
Channel positions : Front: L R
Sampling rate : 48.0 KHz
Bit depth : 16 bits
Compression mode : Lossless / Lossy
Title : Original
Language : English
Default : No
Forced : No
Text
ID : 5
Format : UTF-8
Codec ID : S_TEXT/UTF8
Codec ID/Info : UTF-8 Plain Text
Language : English
Default : No
Forced : No
Menu
00:00:00.000 : en:00:00:00.000
00:06:48.074 : en:00:06:48.074
00:11:15.341 : en:00:11:15.341
00:19:07.729 : en:00:19:07.729
00:29:17.672 : en:00:29:17.672
00:36:34.942 : en:00:36:34.942
00:45:10.666 : en:00:45:10.666
00:55:15.812 : en:00:55:15.812
01:00:50.855 : en:01:00:50.855
01:07:37.344 : en:01:07:37.344
01:21:48.236 : en:01:21:48.236
01:28:56.289 : en:01:28:56.289
01:33:03.202 : en:01:33:03.202

Скриншоты



Скачать

Скачать торрент!

Как скачивать? · Что такое торрент? · Рейтинг и ограничения

Сайт не распространяет и не хранит электронные версии произведений, а лишь предоставляет доступ к создаваемому пользователями каталогу ссылок на торрент-файлы, которые содержат только списки хеш-сумм

[Профиль] [ЛС]
Показать сообщения:    
Ответить на тему

Текущее время: Сегодня 08:38

Часовой пояс: GMT + 4



Вы не можете начинать темы
Вы не можете отвечать на сообщения
Вы не можете редактировать свои сообщения
Вы не можете удалять свои сообщения
Вы не можете голосовать в опросах
Вы не можете прикреплять файлы к сообщениям
Вы не можете скачивать файлы