Голубая лагуна: Пробуждение / Blue lagoon: The awakening (Джейк Ньюсом / Jake Newsome, Микаэл Саломон / Mikael Salomon) [2012, США, мелодрама, драма, приключения, WEB-DL 720p] MVO + Original Eng

Ответить на тему
 
Автор Сообщение

user ®

Стаж: 7 лет 7 месяцев

Сообщений: 20008

Пост Пост: #1 от 15-Дек-2013 18:45

[Цитировать]

Голубая лагуна: Пробуждение / Blue lagoon: The awakening
Страна: США
Студия: PeaceOut Productions, Silver Screen Pictures, Sony Pictures Television
Жанр: мелодрама, драма, приключения
Год выпуска: 2012
Продолжительность: 01:28:56
Перевод: Профессиональный (многоголосый закадровый)
Cубтитры: нет
Оригинальная аудиодорожка: английский
Режиссер: Джейк Ньюсом / Jake Newsome, Микаэл Саломон / Mikael Salomon
В ролях: Индиана Эванс / Indiana Rose Evans, Брентон Туэйтес, Дениз Ричардс, Фрэнк Джон Хьюз, Патрик Ст. Эсприт, Аликс Гиттер, Хейли Кийоко, Айми Кареро, Джейкоб Артист
Описание:В фокусе сюжетной линии двое подростков Эмма и Дин, которые оказались на необитаемом острове в Карибском море. Во время морской прогулки Эмма упала за борт корабля, и только Дин увидел это и прыгнул за ней в море. Проходят недели и молодые люди влюбляются, узнают многое о друг друге, а также познают себя.
Меню: навигация по главам
Сэмпл: http://multi-up.com/932562
Тип релиза: WEB-DL 720p
Контейнер: MKV
Видео: AVC, 1280x718, 16/9, 23.976 fps, 4007 kbps, 0.182 bpp
Аудио: Русский MVO, AC-3, 2 ch, 48 KHz, 192 kbps
Аудио 2: English (оригинал), AC-3, 6 ch, 48 KHz, 384 kbps

MediaInfo

General
Unique ID : 195127257170980611354507899010165115812 (0x92CC248B9A63E771A229A093E6D20BA4)
Complete name : G:\Internet G\Тёлкографии\[1990-07-27] Indiana Rose Evans\[2012] Blue lagoon - The awakening (WEB-DL, 720p).mkv
Format : Matroska
Format version : Version 4 / Version 2
File size : 2.90 GiB
Duration : 1h 28mn
Overall bit rate : 4 676 Kbps
Encoded date : UTC 2013-12-15 06:13:30
Writing application : mkvmerge v6.6.0 ('The Edge Of The In Between') built on Dec 1 2013 17:55:00
Writing library : libebml v1.3.0 + libmatroska v1.4.1
Video
ID : 1
Format : AVC
Format/Info : Advanced Video Codec
Format profile : High@L3.1
Format settings, CABAC : No
Format settings, ReFrames : 2 frames
Codec ID : V_MPEG4/ISO/AVC
Duration : 1h 28mn
Bit rate : 4 007 Kbps
Width : 1 280 pixels
Height : 718 pixels
Display aspect ratio : 16:9
Frame rate : 23.976 fps
Color space : YUV
Chroma subsampling : 4:2:0
Bit depth : 8 bits
Scan type : Progressive
Bits/(Pixel*Frame) : 0.182
Stream size : 2.49 GiB (86%)
Language : English
Default : Yes
Forced : No
Color primaries : BT.709-5, BT.1361, IEC 61966-2-4, SMPTE RP177
Transfer characteristics : BT.709-5, BT.1361
Matrix coefficients : BT.709-5, BT.1361, IEC 61966-2-4 709, SMPTE RP177
Audio #1
ID : 2
Format : AC-3
Format/Info : Audio Coding 3
Mode extension : CM (complete main)
Codec ID : A_AC3
Duration : 1h 28mn
Bit rate mode : Constant
Bit rate : 192 Kbps
Channel(s) : 2 channels
Channel positions : Front: L R
Sampling rate : 48.0 KHz
Bit depth : 16 bits
Compression mode : Lossy
Stream size : 122 MiB (4%)
Title : Русский MVO
Language : Russian
Default : Yes
Forced : No
Audio #2
ID : 3
Format : AC-3
Format/Info : Audio Coding 3
Mode extension : CM (complete main)
Codec ID : A_AC3
Duration : 1h 28mn
Bit rate mode : Constant
Bit rate : 384 Kbps
Channel(s) : 6 channels
Channel positions : Front: L C R, Side: L R, LFE
Sampling rate : 48.0 KHz
Bit depth : 16 bits
Compression mode : Lossy
Stream size : 244 MiB (8%)
Title : English (original)
Language : English
Default : No
Forced : No
Menu
00:00:00.000 : en:Chapter 1
00:05:58.000 : en:Chapter 2
00:13:04.000 : en:Chapter 3
00:18:23.000 : en:Chapter 4
00:23:12.000 : en:Chapter 5
00:28:18.000 : en:Chapter 6
00:31:45.000 : en:Chapter 7
00:37:20.000 : en:Chapter 8
00:44:03.000 : en:Chapter 9
00:47:14.000 : en:Chapter 10
00:50:45.000 : en:Chapter 11
01:00:38.000 : en:Chapter 12
01:03:32.000 : en:Chapter 13
01:09:29.000 : en:Chapter 14
01:14:22.000 : en:Chapter 15
01:20:54.000 : en:Chapter 16

Скриншоты

Торрент перезалит! Убрано сжатие заголовков в контейнере; Убраны субтитры по причине их рассинхрона.
Скачать

Скачать торрент!

Как скачивать? · Что такое торрент? · Рейтинг и ограничения

Сайт не распространяет и не хранит электронные версии произведений, а лишь предоставляет доступ к создаваемому пользователями каталогу ссылок на торрент-файлы, которые содержат только списки хеш-сумм

[Профиль] [ЛС]
Показать сообщения:    
Ответить на тему

Текущее время: Сегодня 15:54

Часовой пояс: GMT + 4



Вы не можете начинать темы
Вы не можете отвечать на сообщения
Вы не можете редактировать свои сообщения
Вы не можете удалять свои сообщения
Вы не можете голосовать в опросах
Вы не можете прикреплять файлы к сообщениям
Вы не можете скачивать файлы