Вальмон / Valmont (Милош Форман / Milos Forman) [1989, Франция, США, драма, мелодрама, BDRip 720p] MVO (R5, СР Диджитал) + MVO (Селена интернешнл) + AVO (Горчаков) + Sub Rus, Eng + Original Eng

Ответить на тему
 
Автор Сообщение

user ®

Стаж: 7 лет 7 месяцев

Сообщений: 20008

Пост Пост: #1 от 15-Дек-2013 18:45

[Цитировать]

Вальмон / Valmont- Страна: Франция, США
Жанр: драма, мелодрама
Год выпуска: 1989
Продолжительность: 2:11:04-Перевод: Профессиональный (многоголосый закадровый) R5, СР Диджитал
Перевод 2: Профессиональный (многоголосый закадровый) "Селена интернешнл" по заказу "ОРТ-видео"
Перевод 3: Авторский (одноголосый закадровый) Василий Горчаков
Cубтитры: русские, английские
Оригинальная аудиодорожка: английский-Режиссер: Милош Форман / Milos Forman
В ролях: Колин Фёрт, Аннетт Бенинг, Мег Тилли, Файруза Балк, Шан Филлипс, Джеффри Джонс, Генри Томас, Фабия Дрейк, Т.П. МакКенна, Айла Блэр
Описание: Экранизация романа Шодерло де Лакло «Опасные связи».
Светская львица маркиза де Мертей однажды узнает, что её любовник Жеркур, не сказав ей ни слова, планирует жениться на юной Сесиль де Воланж. Желая отомстить ему, Мертей уговаривает своего близкого знакомого виконта де Вальмона совратить девушку. Тот поначалу отказывается, заявляя, что влюблен в мадам де Турвель, бережно хранящую верность мужу. Маркиза предлагает Вальмону пари: если он добьется своего с мадам де Турвель, то она отдастся ему; если же нет — то виконт должен будет отправиться в монастырь и покаяться.- -

AVO


MVO


Добавлены английские и русские субтитры
В русских субтитрах исправлены слипшиеся слова.
В английских субтитрах исправлен рассинхрон во второй половине фильма и добавлены несколько пропущенных строк в середине.
Чаптеры уже были в рипе.-Сэмпл: sendfile, ~47 Mb, ~1 минута
Тип релиза: BDRip 720p
Контейнер: MKV
Видео: MPEG-4 AVC / 1280x536 / 25 fps / 2,40:1 / 4 582 Kbps / High Profile 4.1
Аудио 1: Russian MVO AC3 / 5.1 / 48 kHz / 448 kbps |R5, СР Диджитал|
Аудио 2: Russian MVO AC3 / 2.0 / 48 kHz / 192 kbps |"Селена интернешнл" по заказу "ОРТ-видео"|
Аудио 3: Russian AVO AC3 / 2.0 / 48 kHz / 192 kbps |Василий Горчаков|
Аудио 4: English AC3 / 5.1 / 48 kHz / 448 kbps |Original|
Субтитры 1: Russian, softsub (SRT)
Субтитры 2: English, softsub (SRT)

MediaInfo

General
Unique ID : 227565451218789538119608190001793408285 (0xAB3382FD871877E9B072C11DC5931D1D)
Complete name :Valmont.1989.BDRip.720p.mkv
Format : Matroska
Format version : Version 4 / Version 2
File size : 5.37 GiB
Duration : 2h 11mn
Overall bit rate : 5 864 Kbps
Encoded date : UTC 2013-12-15 06:35:48
Writing application : mkvmerge v6.5.0 ('Isn't she lovely') built on Oct 20 2013 12:50:05
Writing library : libebml v1.3.0 + libmatroska v1.4.1
Video
ID : 1
Format : AVC
Format/Info : Advanced Video Codec
Format profile : High@L4.1
Format settings, CABAC : Yes
Format settings, ReFrames : 5 frames
Codec ID : V_MPEG4/ISO/AVC
Duration : 2h 11mn
Bit rate : 4 582 Kbps
Width : 1 280 pixels
Height : 536 pixels
Display aspect ratio : 2.40:1
Frame rate mode : Constant
Frame rate : 25.000 fps
Color space : YUV
Chroma subsampling : 4:2:0
Bit depth : 8 bits
Scan type : Progressive
Bits/(Pixel*Frame) : 0.267
Stream size : 4.09 GiB (76%)
Title : Valmont (Milos Forman) [1989] - [1280x536 @ 25fps ~4582 kbps]
Writing library : x264 core 130 r2273 b3065e6
Encoding settings : cabac=1 / ref=5 / deblock=1:-3:-3 / analyse=0x3:0x113 / me=umh / subme=8 / psy=1 / psy_rd=1.00:0.00 / mixed_ref=1 / me_range=16 / chroma_me=1 / trellis=1 / 8x8dct=1 / cqm=0 / deadzone=21,11 / fast_pskip=1 / chroma_qp_offset=-2 / threads=18 / lookahead_threads=3 / sliced_threads=0 / nr=0 / decimate=1 / interlaced=0 / bluray_compat=0 / constrained_intra=0 / bframes=3 / b_pyramid=2 / b_adapt=2 / b_bias=0 / direct=3 / weightb=1 / open_gop=0 / weightp=2 / keyint=250 / keyint_min=25 / scenecut=40 / intra_refresh=0 / rc_lookahead=50 / rc=2pass / mbtree=1 / bitrate=4582 / ratetol=1.0 / qcomp=0.60 / qpmin=0 / qpmax=69 / qpstep=4 / cplxblur=20.0 / qblur=0.5 / ip_ratio=1.40 / aq=1:1.00
Language : English
Default : Yes
Forced : No
Audio #1
ID : 2
Format : AC-3
Format/Info : Audio Coding 3
Mode extension : CM (complete main)
Format settings, Endianness : Big
Codec ID : A_AC3
Duration : 2h 11mn
Bit rate mode : Constant
Bit rate : 448 Kbps
Channel(s) : 6 channels
Channel positions : Front: L C R, Side: L R, LFE
Sampling rate : 48.0 KHz
Bit depth : 16 bits
Compression mode : Lossy
Stream size : 420 MiB (8%)
Title : MVO (R5, CP) [AC3 6Ch 448 kbps]
Language : Russian
Default : Yes
Forced : No
Audio #2
ID : 3
Format : AC-3
Format/Info : Audio Coding 3
Mode extension : CM (complete main)
Format settings, Endianness : Big
Codec ID : A_AC3
Duration : 2h 11mn
Bit rate mode : Constant
Bit rate : 192 Kbps
Channel(s) : 2 channels
Channel positions : Front: L R
Sampling rate : 48.0 KHz
Bit depth : 16 bits
Compression mode : Lossy
Stream size : 180 MiB (3%)
Title : MVO (ОРТ, Селена интернешнл) [AC3 2Ch 192 kbps]
Language : Russian
Default : No
Forced : No
Audio #3
ID : 4
Format : AC-3
Format/Info : Audio Coding 3
Mode extension : CM (complete main)
Format settings, Endianness : Big
Codec ID : A_AC3
Duration : 2h 11mn
Bit rate mode : Constant
Bit rate : 192 Kbps
Channel(s) : 2 channels
Channel positions : Front: L R
Sampling rate : 48.0 KHz
Bit depth : 16 bits
Compression mode : Lossy
Stream size : 180 MiB (3%)
Title : AVO (Василий Горчаков) [AC3 2Ch 192 kbps]
Language : Russian
Default : No
Forced : No
Audio #4
ID : 5
Format : AC-3
Format/Info : Audio Coding 3
Mode extension : CM (complete main)
Format settings, Endianness : Big
Codec ID : A_AC3
Duration : 2h 11mn
Bit rate mode : Constant
Bit rate : 448 Kbps
Channel(s) : 6 channels
Channel positions : Front: L C R, Side: L R, LFE
Sampling rate : 48.0 KHz
Bit depth : 16 bits
Compression mode : Lossy
Stream size : 420 MiB (8%)
Title : Original [AC3 6Ch 448 kbps]
Language : English
Default : No
Forced : No
Text #1
ID : 6
Format : UTF-8
Codec ID : S_TEXT/UTF8
Codec ID/Info : UTF-8 Plain Text
Title : Полные [SRT]
Language : Russian
Default : No
Forced : No
Text #2
ID : 7
Format : UTF-8
Codec ID : S_TEXT/UTF8
Codec ID/Info : UTF-8 Plain Text
Title : Full [SRT]
Language : English
Default : No
Forced : No
Menu
00:00:00.000 : en:00:00:00.000
00:10:11.080 : en:00:10:11.080
00:21:11.600 : en:00:21:11.600
00:31:04.400 : en:00:31:04.400
00:40:46.760 : en:00:40:46.760
00:50:45.560 : en:00:50:45.560
01:01:14.000 : en:01:01:14.000
01:10:28.240 : en:01:10:28.240
01:23:35.400 : en:01:23:35.400
01:28:35.040 : en:01:28:35.040
01:42:30.760 : en:01:42:30.760
01:58:17.680 : en:01:58:17.680

Скриншоты




Скачать

Скачать торрент!

Как скачивать? · Что такое торрент? · Рейтинг и ограничения

Сайт не распространяет и не хранит электронные версии произведений, а лишь предоставляет доступ к создаваемому пользователями каталогу ссылок на торрент-файлы, которые содержат только списки хеш-сумм

[Профиль] [ЛС]
Показать сообщения:    
Ответить на тему

Текущее время: Сегодня 18:40

Часовой пояс: GMT + 4



Вы не можете начинать темы
Вы не можете отвечать на сообщения
Вы не можете редактировать свои сообщения
Вы не можете удалять свои сообщения
Вы не можете голосовать в опросах
Вы не можете прикреплять файлы к сообщениям
Вы не можете скачивать файлы