Ты заплатишь за всё (2 серии из 2) (Дмитрий Сорокин) [2013, Драма, SATRip]

Ответить на тему
 
Автор Сообщение

user ®

Стаж: 7 лет 7 месяцев

Сообщений: 20008

Пост Пост: #1 от 15-Дек-2013 18:45

[Цитировать]

Ты заплатишь за всё (2 серии из 2)
Жанр: Драма
Год выпуска: 2013
Продолжительность: 01:34:38 + 01:20:48
Режиссёр: Дмитрий Сорокин
В ролях: Алёна Ивченко, Яна Шивкова, Максим Радугин, Михаил Дорожкин, Алексей Захаров, Игорь Филиппов, Ангелина Добророднова, Елена Ветрова, Евгений Кушпель, Владимир Румянцев
Описание: Дом Анны всегда был полной чашей: заботливый и обеспеченный муж, послушные дети. Одна беда — серьёзно больна сестра. После курса лечения девушка должна была пойти на поправку, но она внезапно умерла как раз из-за того препарата, с которым связывали надежду на выздоровление. Анна решает наказать виновных в гибели сестры и обращается в суд. «Фармацевт-убийца» арестован и умирает в тюрьме. Его жена, Наталья, теряет долгожданного первенца. С этого момента она решает отомстить тем, кто виноват в смерти ее мужа и ребенка. Как это решение отразиться на семье Анны? И чем обернётся для самой мстительницы?
Сэмпл: http://multi-up.com/932311
Качество видео: SATRip
Формат видео: AVI
Видео: 720x416 (1.73:1), 25 fps, XviD MPEG-4 ~1494 kbps
Аудио: 48 kHz, MPEG Layer 3, 2 ch, ~128.00 kbps avg

MediaInfo

Формат : AVI
Формат/Информация : Audio Video Interleave
Размер файла : 1,08 Гбайт
Продолжительность : 1 ч. 34 м.
Общий поток : 1633 Кбит/сек
Программа кодирования : VirtualDubMod 1.5.10.2 (build 2540/release)
Библиотека кодирования : VirtualDub build 32507/release
Видео
Идентификатор : 0
Формат : MPEG-4 Visual
Профиль формата : Advanced Simple@L5
Параметр BVOP формата : 2
Параметр QPel формата : Нет
Параметр GMC формата : Без точки перехода
Параметр матрицы формата : Default (MPEG)
Идентификатор кодека : XVID
Идентификатор кодека/Подсказка : XviD
Продолжительность : 1 ч. 34 м.
Битрейт : 1495 Кбит/сек
Ширина : 720 пикселей
Высота : 416 пикселей
Соотношение сторон : 1,731
Частота кадров : 25,000 кадров/сек
Цветовое пространство : YUV
Субдискретизация насыщенности : 4:2:0
Битовая глубина : 8 бит
Тип развёртки : Прогрессивная
Метод сжатия : С потерями
Бит/(Пиксели*Кадры) : 0.200
Размер потока : 1012 Мбайт (92%)
Библиотека кодирования : XviD 64
Аудио
Идентификатор : 1
Формат : MPEG Audio
Версия формата : Version 1
Профиль формата : Layer 3
Режим : Joint stereo
Идентификатор кодека : 55
Идентификатор кодека/Подсказка : MP3
Продолжительность : 1 ч. 34 м.
Вид битрейта : Постоянный
Битрейт : 128 Кбит/сек
Каналы : 2 канала
Частота : 48,0 КГц
Метод сжатия : С потерями
Размер потока : 86,6 Мбайт (8%)
Выравнивание : Соединение по промежуткам
Продолжительность промежутка : 40 мс. (1,00 видеокадр)
Время предзагрузки промежутка : 504 мс.

Скриншоты

Скачать

Скачать торрент!

Как скачивать? · Что такое торрент? · Рейтинг и ограничения

Сайт не распространяет и не хранит электронные версии произведений, а лишь предоставляет доступ к создаваемому пользователями каталогу ссылок на торрент-файлы, которые содержат только списки хеш-сумм

[Профиль] [ЛС]
Показать сообщения:    
Ответить на тему

Текущее время: Сегодня 06:54

Часовой пояс: GMT + 4



Вы не можете начинать темы
Вы не можете отвечать на сообщения
Вы не можете редактировать свои сообщения
Вы не можете удалять свои сообщения
Вы не можете голосовать в опросах
Вы не можете прикреплять файлы к сообщениям
Вы не можете скачивать файлы