Пленницы / Prisoners (Дени Вильнёв / Denis Villeneuve) [2013, США, триллер, драма, криминал, BDRip] AVO (Ю.Сербин) + Original (Eng) + Sub (Rus, Eng)

Ответить на тему
 
Автор Сообщение

user ®

Стаж: 7 лет 7 месяцев

Сообщений: 20008

Пост Пост: #1 от 15-Дек-2013 18:45

[Цитировать]

Пленницы / Prisoners
Год выпуска: 2013
Страна: США
Жанр: триллер, драма, криминал
Продолжительность: 02:33:11
Перевод: Авторский (одноголосый закадровый) - Ю. Сербин + Оригинальная (английская) дорожка - отдельно
Субтитры: русские, английские - softsub (SRT)
Режиссер: Дени Вильнёв / Denis Villeneuve
В ролях: Хью Джекман (Keller Dover), Джейк Джилленхол (Detective Loki), Виола Дэвис (Nancy Birch), Мария Белло (Grace Dover), Терренс Ховард (Franklin Birch), Мелисса Лео (Holly Jones), Пол Дано (Alex Jones), Дилан Миннетт (Ralph Dover), Зои Борд (Eliza Birch), Эрин Герасимович (Anna Dover), Кайла Дрю Симмонс (Joy Birch), Уэйн Дювалл (Captain Richard O'Malley)--Описание: Келлер Довер сталкивается с самым большим кошмаром каждого родителя: его шестилетняя дочь пропала вместе с подругой. Время бежит, девочки не возвращаются, и паника достигает своего предела. Единственная зацепка — обветшалый фургончик, который был припаркован на их улице, когда девочки играли во дворе. Детектив Локки, возглавляющий расследование, арестовывает его водителя, Алекса Джонса, но вскоре полиция вынуждена его отпустить из-за нехватки улик. Полиция медлит, а обезумевший от горя отец берет дело в свои руки. Но как далеко готов зайти Келлер в поисках девочек?-Рейтинг
kinopoisk.ru: 7.896 (14 850)
imdb.com: 8.1 (93 810) - Top 250 #227
-Качество: BDRip
Формат: AVI //SAMPLE//
Видео: 704x400 (1.76:1), 23.976 fps, XviD build 65 ~1586 kbps avg, 0.23 bit/pixel
Аудио RUS: 48 kHz, AC3 Dolby Digital, 3/2 (L,C,R,l,r) + LFE ch, ~448 kbps - AVO (Ю. Сербин)
Аудио ENG: 48 kHz, AC3 Dolby Digital, 3/2 (L,C,R,l,r) + LFE ch, ~448 kbps - Original (отдельно)

MediaInfo

Общее
Полное имя : F:\Video\AVI\Films\Plennicy.2013.RUS.BDRip.XviD.AC3.-AllFilms\Plennicy.2013.RUS.BDRip.XviD.AC3.-AllFilms.avi
Формат : AVI
Формат/Информация : Audio Video Interleave
Профиль формата : OpenDML
Размер файла : 2,18 Гбайт
Продолжительность : 2 ч. 33 м.
Общий поток : 2041 Кбит/сек
Название фильма : Пленницы / Prisoners (2013)
Режиссёр : Shevon (BDRemux)
Программа кодирования : VirtualDubMod 1.5.10.3 | www.virtualdub-fr.org || (build 2550/release)
Правообладатель : AllFilms
Видео
Идентификатор : 0
Формат : MPEG-4 Visual
Профиль формата : Advanced Simple@L5
Параметр BVOP формата : 1
Параметр QPel формата : Нет
Параметр GMC формата : Без точки перехода
Параметр матрицы формата : Выборочная
Идентификатор кодека : XVID
Идентификатор кодека/Подсказка : XviD
Продолжительность : 2 ч. 33 м.
Битрейт : 1582 Кбит/сек
Ширина : 704 пикселя
Высота : 400 пикселей
Соотношение сторон : 16:9
Частота кадров : 23,976 кадра/сек
Цветовое пространство : YUV
Субдискретизация насыщенности : 4:2:0
Битовая глубина : 8 бит
Тип развёртки : Прогрессивная
Метод сжатия : С потерями
Бит/(Пиксели*Кадры) : 0.234
Размер потока : 1,69 Гбайт (77%)
Библиотека кодирования : XviD 65
Аудио
Идентификатор : 1
Формат : AC-3
Формат/Информация : Audio Coding 3
Расширение режима : CM (complete main)
Параметр Endianness формата : Big
Идентификатор кодека : 2000
Продолжительность : 2 ч. 33 м.
Вид битрейта : Постоянный
Битрейт : 448 Кбит/сек
Каналы : 6 каналов
Расположение каналов : Front: L C R, Side: L R, LFE
Частота : 48,0 КГц
Битовая глубина : 16 бит
Метод сжатия : С потерями
Размер потока : 491 Мбайт (22%)
Выравнивание : Разделение по промежуткам
Продолжительность промежутка : 42 мс. (1,00 видеокадр)
Время предзагрузки промежутка : 500 мс.

Скриншоты

-Перевод Ю.Сербина выполнен в рамках сервиса от HDCLUB "Озвучивание". Спонсоры: borisol55, Confidence, exact, tambov68, kuryha, RAUL, Кириллка, Dervish, Ace34, xRym, Loki1982, kotauskas, Ex1l, Naumec, а так же пользователи ресурса e180. За что им огромное спасибо!
Скачать

Скачать торрент!

Как скачивать? · Что такое торрент? · Рейтинг и ограничения

Сайт не распространяет и не хранит электронные версии произведений, а лишь предоставляет доступ к создаваемому пользователями каталогу ссылок на торрент-файлы, которые содержат только списки хеш-сумм

[Профиль] [ЛС]
Показать сообщения:    
Ответить на тему

Текущее время: Сегодня 08:38

Часовой пояс: GMT + 4



Вы не можете начинать темы
Вы не можете отвечать на сообщения
Вы не можете редактировать свои сообщения
Вы не можете удалять свои сообщения
Вы не можете голосовать в опросах
Вы не можете прикреплять файлы к сообщениям
Вы не можете скачивать файлы