Зона высадки / Drop Zone (Джон Бэдэм / John Badham) [1994, США, боевик, триллер, BDRemux 1080p] 2x DVO + 2x MVO + AVO (Гаврилов) + Sub Rus, Eng + Original Eng

Ответить на тему
 
Автор Сообщение

user ®

Стаж: 7 лет 7 месяцев

Сообщений: 20008

Пост Пост: #1 от 15-Дек-2013 12:55

[Цитировать]

Зона высадки / Drop Zone
Страна: США
Жанр: боевик, триллер
Год выпуска: 1994
Продолжительность: 01:41:32
Перевод:
1: Профессиональный (двухголосый закадровый) - Премьер Видео
2: Профессиональный (двухголосый закадровый) - Премьер Видео (VHS)
3: Профессиональный (многоголосый закадровый) - СТС
4: Профессиональный (многоголосый закадровый) - R5
5: Авторский (одноголосый закадровый) - Гаврилов
Cубтитры: русские, английские
Навигация по главам: нет
Режиссер: Джон Бэдэм / John Badham
В ролях: Уэсли Снайпс, Гэри Бьюзи, Янси Батлер, Майкл Джитер, Корин Немек, Кайл Сикор
Описание: Полицейский и его брат перевозили преступника, специалиста по компьютерам, для дачи показаний в суде. В самолете, в котором они везли этого компьютерного гения, на них напали террористы. Они взорвали кусок обшивки и выпрыгнули с парашютами, прихватив с собой этого ценного парня, столь нужного им для «работы». При этом брат полицейского погиб, а его самого отстранили от расследования, так как этого требовали правила следствия. Но полицейский, естественно, оставить этого так не мог. Он начинает поиски убийц.
Сэмпл: http://yadi.sk/d/3PWdZSOvEC8rL
Качество: BDRemux 1080p
Контейнер: MKV
Видео: AVC 1920x1080, (2.35:1), 23,976 fps, 28200 Kbps
Аудио №1: Rus; AC3 5.1; 448 Kbps; 48 kHz; DVO Премьер Видео
Аудио №2: Rus; AC3 2.0; 192 Kbps; 48 kHz; DVO Премьер Видео (VHS)
Аудио №3: Rus; AC3 2.0; 192 Kbps; 48 kHz; MVO СТС
Аудио №4: Rus; AC3 5.1; 448 Kbps; 48 kHz; MVO R5
Аудио №5: Rus; AC3 5.1; 448 Kbps; 48 kHz; AVO Гаврилов
Аудио №6: Eng; DTS-HD MA 5.1; 1509 Kbps; 48 kHz; Original
Субтитры №1: Rus, SRT
Субтитры №2: Eng, SRT

MediaInfo

General
Unique ID : 190390884978487270968922777823973464237 (0x8F3BF35DEB5A22D5869E88490A6BD8AD)
Complete name : L:\Drop Zone.mkv
Format : Matroska
Format version : Version 4 / Version 2
File size : 20.0 GiB
Duration : 1h 41mn
Overall bit rate mode : Variable
Overall bit rate : 28.2 Mbps
Encoded date : UTC 2013-12-12 07:47:59
Writing application : mkvmerge v6.6.0 ('The Edge Of The In Between') built on Dec 1 2013 17:55:00
Writing library : libebml v1.3.0 + libmatroska v1.4.1
Video #1
ID : 1
Format : AVC
Format/Info : Advanced Video Codec
Format profile : High@L4.1
Format settings, CABAC : Yes
Format settings, ReFrames : 4 frames
Codec ID : V_MPEG4/ISO/AVC
Duration : 1h 41mn
Bit rate mode : Variable
Maximum bit rate : 38.0 Mbps
Width : 1 920 pixels
Height : 1 080 pixels
Display aspect ratio : 16:9
Frame rate mode : Constant
Frame rate : 23.976 fps
Color space : YUV
Chroma subsampling : 4:2:0
Bit depth : 8 bits
Scan type : Progressive
Default : Yes
Forced : No
Color primaries : BT.709
Transfer characteristics : BT.709
Matrix coefficients : BT.709
Audio #2
ID : 2
Format : AC-3
Format/Info : Audio Coding 3
Mode extension : CM (complete main)
Format settings, Endianness : Big
Codec ID : A_AC3
Duration : 1h 41mn
Bit rate mode : Constant
Bit rate : 448 Kbps
Channel count : 6 channels
Channel positions : Front: L C R, Side: L R, LFE
Sampling rate : 48.0 KHz
Bit depth : 16 bits
Compression mode : Lossy
Stream size : 325 MiB (2%)
Title : DVO
Language : Russian
Default : Yes
Forced : No
Audio #3
ID : 3
Format : AC-3
Format/Info : Audio Coding 3
Mode extension : CM (complete main)
Format settings, Endianness : Big
Codec ID : A_AC3
Duration : 1h 41mn
Bit rate mode : Constant
Bit rate : 192 Kbps
Channel count : 2 channels
Channel positions : Front: L R
Sampling rate : 48.0 KHz
Bit depth : 16 bits
Compression mode : Lossy
Stream size : 139 MiB (1%)
Title : DVO (VHS)
Language : Russian
Default : No
Forced : No
Audio #4
ID : 4
Format : AC-3
Format/Info : Audio Coding 3
Mode extension : CM (complete main)
Format settings, Endianness : Big
Codec ID : A_AC3
Duration : 1h 41mn
Bit rate mode : Constant
Bit rate : 192 Kbps
Channel count : 2 channels
Channel positions : Front: L R
Sampling rate : 48.0 KHz
Bit depth : 16 bits
Compression mode : Lossy
Stream size : 139 MiB (1%)
Title : MVO CTC
Language : Russian
Default : No
Forced : No
Audio #5
ID : 5
Format : AC-3
Format/Info : Audio Coding 3
Mode extension : CM (complete main)
Format settings, Endianness : Big
Codec ID : A_AC3
Duration : 1h 41mn
Bit rate mode : Constant
Bit rate : 448 Kbps
Channel count : 6 channels
Channel positions : Front: L C R, Side: L R, LFE
Sampling rate : 48.0 KHz
Bit depth : 16 bits
Compression mode : Lossy
Stream size : 325 MiB (2%)
Title : MVO R5
Language : Russian
Default : No
Forced : No
Audio #6
ID : 6
Format : AC-3
Format/Info : Audio Coding 3
Mode extension : CM (complete main)
Format settings, Endianness : Big
Codec ID : A_AC3
Duration : 1h 41mn
Bit rate mode : Constant
Bit rate : 448 Kbps
Channel count : 6 channels
Channel positions : Front: L C R, Side: L R, LFE
Sampling rate : 48.0 KHz
Bit depth : 16 bits
Compression mode : Lossy
Stream size : 325 MiB (2%)
Title : AVO Gavrilov
Language : Russian
Default : No
Forced : No
Audio #7
ID : 7
Format : DTS
Format/Info : Digital Theater Systems
Format profile : MA / Core
Mode : 16
Format settings, Endianness : Big
Codec ID : A_DTS
Duration : 1h 41mn
Bit rate mode : Variable
Bit rate : Unknown / 1 509 Kbps
Channel count : 6 channels
Channel positions : Front: L C R, Side: L R, LFE
Sampling rate : 48.0 KHz
Bit depth : 24 bits
Compression mode : Lossless / Lossy
Language : English
Default : No
Forced : No
Text #8
ID : 8
Format : UTF-8
Codec ID : S_TEXT/UTF8
Codec ID/Info : UTF-8 Plain Text
Language : Russian
Default : No
Forced : No
Text #9
ID : 9
Format : UTF-8
Codec ID : S_TEXT/UTF8
Codec ID/Info : UTF-8 Plain Text
Language : English
Default : No
Forced : No

Скриншоты

Скачать

Скачать торрент!

Как скачивать? · Что такое торрент? · Рейтинг и ограничения

Сайт не распространяет и не хранит электронные версии произведений, а лишь предоставляет доступ к создаваемому пользователями каталогу ссылок на торрент-файлы, которые содержат только списки хеш-сумм

[Профиль] [ЛС]
Показать сообщения:    
Ответить на тему

Текущее время: Сегодня 20:04

Часовой пояс: GMT + 4



Вы не можете начинать темы
Вы не можете отвечать на сообщения
Вы не можете редактировать свои сообщения
Вы не можете удалять свои сообщения
Вы не можете голосовать в опросах
Вы не можете прикреплять файлы к сообщениям
Вы не можете скачивать файлы