Дарья: Когда же колледж? / Daria: Is It College Yet? (Карен Дишер/Karen Disher) [2002, комедия, драма, DVDRip] DVO + Rus Sub

Ответить на тему
 
Автор Сообщение

user ®

Стаж: 12 лет

Сообщений: 15145

Пост Пост: #1 от 15-Дек-2013 03:25

[Цитировать]

Дарья: Когда же колледж? / Daria: Is It College Yet?
Страна: США
Жанр: комедия, драма
Продолжительность: 01:05:57
Год выпуска: 2002
Перевод: Профессиональный (двухголосый закадровый)
Русские субтитры: есть
Режиссёр: Карен Дишер/Karen Disher
Роли озвучивали: Трейси Грендстаф, Венди Хоупс, Марк Томпсон, Джени Мерц и др.
Описание: "Дарья" — мультсериал, созданный на MTV. Главная героиня — одноимённая американская школьница, которая троллит родителей, сестру, одноклассников, одноклассниц, учителей, спонсоров стипендии, футбольных суперзвёзд, быдло и небыдло, тусовщиц, не успевших увернуться прохожих и случайных жертв, кроме одной подруги (с которой спелась на почве троллинга) и тех немногочисленных парней, которые очаровали её наличием хотя бы минимального мозга.
Самое первое появление — в мультсериале «Бивис и Баттхед» на правах второстепенного персонажа-резонёра.
Фильм является завершением последнего (5-го) сезона сериала.
Качество: DVDRip
Формат: MKV
Видео: AVC, 720x480 (NTSC 4:3), 23.976 fps, 893 Kbps
Аудио: AC-3, 48.0 KHz, 2 channels, 192 Kbps, русский
Аудио 2: AC-3, 48.0 KHz, 2 channels, 192 Kbps, английский
Субтитры: softsub (SRT) русский, softsub (SRT) английский

Подробные технические данные

GeneralUnique ID : 5941335792299842892650033025332708169 (0x47842788059CFE28726B2F5B4EA8349)Complete name : Daria-s05m-Is_It_College_Yet.mkvFormat : MatroskaFormat version : Version 2File size : 615 MiBDuration : 1h 5mnOverall bit rate : 1 303 KbpsEncoded date : UTC 2013-12-14 14:32:26Writing application : mkvmerge v5.8.0 ('No Sleep / Pillow') built on Sep 5 2012 11:51:00Writing library : libebml v1.2.2 + libmatroska v1.3.0
VideoID : 1Format : AVCFormat/Info : Advanced Video CodecFormat profile : High@L4.1Format settings, CABAC : YesFormat settings, ReFrames : 16 framesCodec ID : V_MPEG4/ISO/AVCDuration : 1h 5mnBit rate : 893 KbpsWidth : 720 pixelsHeight : 480 pixelsDisplay aspect ratio : 4:3Frame rate mode : ConstantFrame rate : 23.976 fpsStandard : NTSCColor space : YUVChroma subsampling : 4:2:0Bit depth : 8 bitsScan type : ProgressiveBits/(Pixel*Frame) : 0.108Stream size : 421 MiB (69%)Writing library : x264 core 128 r2223 f6a8615Encoding settings : cabac=1 / ref=16 / deblock=1:0:0 / analyse=0x3:0x133 / me=umh / subme=9 / psy=1 / psy_rd=1.00:0.00 / mixed_ref=1 / me_range=24 / chroma_me=1 / trellis=2 / 8x8dct=1 / cqm=0 / deadzone=21,11 / fast_pskip=1 / chroma_qp_offset=-2 / threads=12 / lookahead_threads=2 / sliced_threads=0 / nr=0 / decimate=1 / interlaced=0 / bluray_compat=0 / constrained_intra=0 / bframes=8 / b_pyramid=2 / b_adapt=2 / b_bias=0 / direct=3 / weightb=1 / open_gop=0 / weightp=2 / keyint=250 / keyint_min=23 / scenecut=40 / intra_refresh=0 / rc=cqp / mbtree=0 / qp=18 / ip_ratio=1.00 / pb_ratio=1.00 / aq=0Language : EnglishDefault : YesForced : No
Audio #1ID : 2Format : AC-3Format/Info : Audio Coding 3Mode extension : CM (complete main)Format settings, Endianness : BigCodec ID : A_AC3Duration : 1h 5mnBit rate mode : ConstantBit rate : 192 KbpsChannel(s) : 2 channelsChannel positions : Front: L RSampling rate : 48.0 KHzBit depth : 16 bitsCompression mode : LossyStream size : 90.6 MiB (15%)Title : RussianLanguage : RussianDefault : YesForced : No
Audio #2ID : 3Format : AC-3Format/Info : Audio Coding 3Format profile : Dolby DigitalMode extension : CM (complete main)Format settings, Endianness : BigCodec ID : A_AC3Duration : 1h 5mnBit rate mode : ConstantBit rate : 192 KbpsChannel(s) : 2 channelsChannel positions : Front: L RSampling rate : 48.0 KHzBit depth : 16 bitsCompression mode : LossyStream size : 90.6 MiB (15%)Title : EnglishLanguage : EnglishDefault : NoForced : No
Text #1ID : 4Format : UTF-8Codec ID : S_TEXT/UTF8Codec ID/Info : UTF-8 Plain TextTitle : RussianLanguage : RussianDefault : NoForced : No
Text #2ID : 5Format : UTF-8Codec ID : S_TEXT/UTF8Codec ID/Info : UTF-8 Plain TextTitle : EnglishLanguage : EnglishDefault : NoForced : No

Скриншоты

Скачать

Скачать торрент! Дарья: Когда же колледж? / Daria: Is It College Yet? (Карен Дишер/Karen Disher) [2002, комедия, драма, DVDRip] DVO + Rus Sub

Как скачивать? · Что такое торрент? · Рейтинг и ограничения

Сайт не распространяет и не хранит электронные версии произведений, а лишь предоставляет доступ к создаваемому пользователями каталогу ссылок на торрент-файлы, которые содержат только списки хеш-сумм

[Профиль] [ЛС]
Показать сообщения:    
Ответить на тему

Текущее время: Сегодня 20:02

Часовой пояс: GMT + 4



Вы не можете начинать темы
Вы не можете отвечать на сообщения
Вы не можете редактировать свои сообщения
Вы не можете удалять свои сообщения
Вы не можете голосовать в опросах
Вы не можете прикреплять файлы к сообщениям
Вы не можете скачивать файлы