Парень из Чаочжоу / Рука смерти кунг-фу / Chaochow Guy / Chiu Chow Guy (Цзинь Шэн-Энь / Jin Sheng-En) [1973, Тайвань, боевые искусства, DVDRip] VO (efremaka)

Ответить на тему
 
Автор Сообщение

user ®

Стаж: 13 лет

Сообщений: 15071

Пост Пост: #1 от 15-Дек-2013 03:25

[Цитировать]

Парень из Чаочжоу / Рука смерти кунг-фу / Chaochow Guy / Chiu Chow Guy
Страна: Тайвань
Жанр: боевые искусства
Год выпуска: 1973
Продолжительность: 01:29:34
Перевод: Одноголосый закадровый efremaka
Cубтитры: нет
Режиссер: Цзинь Шэн-Энь / Jin Sheng-En
В ролях: Тянь Пэн, Нэнси Ен, Вон Куньхун, Вон Фэйлун, Ли Цзян, Пань Цуньлин, Блэкки Ко, Чань Сёньят, Коу Чаньпан
Описание: Школа Боевых искусств военной академии проводит турнир по боевым искусствам, чтобы показать превосходство Китайской армии. Но неожиданно, их лучший боец побеждён без каких либо усилий, каким-то крестьянином, по имени Куо. В результате чего, вся репутация Военно-Учебного заведения была болезненно затронута и близка к роспуску. Разъярённые члены Военной академии заманивают Куо в ловушку и убивают его. Его невеста, Су Чэнь, клянётся, что отомстит за него и ищет человека владеющего такими же навыками боевого искусства, как её наречённый. Вскоре она находит его и начинает оттачивать своё мастерство. Объединившись, они начинают свою месть...
Благодарность: За перевод благодарность выражается шурик 555, озвучивание - efremaka.
Сэмпл: http://multi-up.com/932363
Качество видео: DVDRip
Формат видео: AVI
Видео: 720x304 (2.37:1), 25 fps, XviD build 50 ~2138 kbps avg, 0.39 bit/pixel
Аудио: 48 kHz, AC3 Dolby Digital, 2/0 (L,R) ch, ~192 kbps

MediaInfo

Format : AVI
Format/Info : Audio Video Interleave
File size : 1,46 Гбайт
Duration : 1 ч. 29 м.
Overall bit rate : 2340 Кбит/сек
Writing application : VirtualDubMod 1.5.10.3 | www.virtualdub-fr.org || (build 2550/release)
Writing library : VirtualDubMod build 2550/release
Видео
ID : 0
Format : MPEG-4 Visual
Format profile : Advanced Simple@L5
Format settings, BVOP : 2
Format settings, QPel : Нет
Format settings, GMC : Без точки перехода
Format settings, Matrix : Default (MPEG)
Codec ID : XVID
Codec ID/Hint : XviD
Duration : 1 ч. 29 м.
Bit rate : 2139 Кбит/сек
Width : 720 пикселей
Height : 304 пикселя
Display aspect ratio : 2,35:1
Frame rate : 25,000 кадров/сек
Color space : YUV
Chroma subsampling : 4:2:0
Bit depth : 8 бит
Scan type : Прогрессивная
Compression mode : С потерями
Bits/(Pixel*Frame) : 0.391
Stream size : 1,34 Гбайт (91%)
Writing library : XviD 1.2.1 (UTC 2008-12-04)
Аудио
ID : 1
Format : AC-3
Format/Info : Audio Coding 3
Mode extension : CM (complete main)
Format settings, Endianness : Big
Codec ID : 2000
Duration : 1 ч. 29 м.
Bit rate mode : Постоянный
Bit rate : 192 Кбит/сек
Channel(s) : 2 канала
Channel positions : Front: L R
Sampling rate : 48,0 КГц
Bit depth : 16 бит
Compression mode : С потерями
Stream size : 123 Мбайт (8%)
Alignment : Разделение по промежуткам
Interleave, duration : 40 мс. (1,00 видеокадр)
Interleave, preload duration : 500 мс.

Скриншот c названием фильма

Скриншоты

Скачать

Скачать торрент! Парень из Чаочжоу / Рука смерти кунг-фу / Chaochow Guy / Chiu Chow Guy (Цзинь Шэн-Энь / Jin Sheng-En) [1973, Тайвань, боевые искусства, DVDRip] VO (efremaka)

Как скачивать? · Что такое торрент? · Рейтинг и ограничения

Сайт не распространяет и не хранит электронные версии произведений, а лишь предоставляет доступ к создаваемому пользователями каталогу ссылок на торрент-файлы, которые содержат только списки хеш-сумм

[Профиль] [ЛС]
Показать сообщения:    
Ответить на тему

Текущее время: Сегодня 22:02

Часовой пояс: GMT + 4



Вы не можете начинать темы
Вы не можете отвечать на сообщения
Вы не можете редактировать свои сообщения
Вы не можете удалять свои сообщения
Вы не можете голосовать в опросах
Вы не можете прикреплять файлы к сообщениям
Вы не можете скачивать файлы