Босс / Boss (Энтони Д’Соуза / Anthony D\'Souza) [2013, Индия, Боевик, драма, комедия, DVDRip] MVO (ICG) + Sub Rus + Original

Ответить на тему
 
Автор Сообщение

user ®

Стаж: 12 лет

Сообщений: 15092

Пост Пост: #1 от 15-Дек-2013 03:25

[Цитировать]

Босс / Boss
-Страна: Индия
Жанр: Боевик, драма, комедия
Год выпуска: 2013
Продолжительность: 02:20:56--Язык: Хинди
Перевод: Любительский (многоголосый закадровый) - ICG
Cубтитры: Pусские (полные, песни) [перевод: Rummata ]--Режиссер: Энтони Д’Соуза / Anthony D'Souza-В ролях: Акшай Кумар, Шив Пандит, Митхун Чакраборти, Ронит Рой, Адити Рао Хидари, Джонни Левер, Парикшит Сахни, Амитабх Баччан, Судеш Берри, Свантатра Бхарат--Описание: История о крутом бандите по имени Босс, невозмутимом и несокрушимом. Он живёт по завету своего учителя побеждать всех врагов с улыбкой. Но вместе с тем в фильме красной нитью проходит щемящая сердце тема взаимоотношений отца и сына, а также братской любви и преданности.-- | Кинопоиск | Трейлер| Сэмпл--Качество видео: DVDRip
Формат видео: AVI-Видео: XviD, 720x304, 1544 Кбит/с, 23,976 fps,
Аудио #1: AC3, 6 ch, 448 Кбит/с [Rus ]
Аудио #2: 48 kHz, АС3, 2 ch, 224 kbps [Hindi ]
Формат субтитров: softsub (SRT)-Доп. информация:
  • о субтитрах: внешние: #полные, #песни-Релиз по заказу (спасибо!)
    Перевод, редакция: Rummata (спасибо!)
    Особая благодарность: Анне Бирюковой и Манону Набиджонову.--Сэмпл / Sample-- -
    -
    -

    Скриншот с названием:


    -

    Скриншоты:


    -

    MI

    Скрин "MI

    Общее
    Полное имя : Q:\[Релизы]\[DVDRip]\BOSS.2013.DVDRip.Rus.Original.ICG.GeneralFilm\BOSS.2013.DVDRip.Rus.Original.ICG.GeneralFilm.avi
    Формат : AVI
    Формат/Информация : Audio Video Interleave
    Профиль формата : OpenDML
    Размер файла : 2,20 Гбайт
    Продолжительность : 2 ч. 20 м.
    Общий поток : 2230 Кбит/сек
    Программа кодирования : VirtualDubModRus 1.5.10.2 (build 2542/release)
    Библиотека кодирования : VirtualDubMod build 2542/release
    Видео
    Идентификатор : 0
    Формат : xvid
    Идентификатор кодека : xvid
    Продолжительность : 2 ч. 20 м.
    Битрейт : 1544 Кбит/сек
    Ширина : 720 пикселей
    Высота : 304 пикселя
    Соотношение сторон : 2,35:1
    Частота кадров : 23,976 кадра/сек
    Бит/(Пиксели*Кадры) : 0.294
    Размер потока : 1,52 Гбайт (69%)
    Аудио #1
    Идентификатор : 1
    Формат : AC-3
    Формат/Информация : Audio Coding 3
    Расширение режима : CM (complete main)
    Параметр Endianness формата : Big
    Идентификатор кодека : 2000
    Продолжительность : 2 ч. 20 м.
    Вид битрейта : Постоянный
    Битрейт : 448 Кбит/сек
    Каналы : 6 каналов
    Расположение каналов : Front: L C R, Side: L R, LFE
    Частота : 48,0 КГц
    Битовая глубина : 16 бит
    Метод сжатия : С потерями
    Размер потока : 452 Мбайт (20%)
    Выравнивание : Разделение по промежуткам
    Продолжительность промежутка : 42 мс. (1,00 видеокадр)
    Время предзагрузки промежутка : 500 мс.
    Аудио #2
    Идентификатор : 2
    Формат : AC-3
    Формат/Информация : Audio Coding 3
    Расширение режима : CM (complete main)
    Параметр Endianness формата : Big
    Идентификатор кодека : 2000
    Продолжительность : 2 ч. 20 м.
    Вид битрейта : Постоянный
    Битрейт : 224 Кбит/сек
    Каналы : 2 канала
    Расположение каналов : Front: L R
    Частота : 48,0 КГц
    Битовая глубина : 16 бит
    Метод сжатия : С потерями
    Размер потока : 226 Мбайт (10%)
    Выравнивание : Разделение по промежуткам
    Продолжительность промежутка : 137 мс. (3,29 видеокадра)
    Время предзагрузки промежутка : 548 мс.

    -
    -
Скачать

Скачать торрент! Босс / Boss (Энтони Д’Соуза / Anthony D\'Souza) [2013, Индия, Боевик, драма, комедия, DVDRip] MVO (ICG) + Sub Rus + Original

Как скачивать? · Что такое торрент? · Рейтинг и ограничения

Сайт не распространяет и не хранит электронные версии произведений, а лишь предоставляет доступ к создаваемому пользователями каталогу ссылок на торрент-файлы, которые содержат только списки хеш-сумм

[Профиль] [ЛС]
Показать сообщения:    
Ответить на тему

Текущее время: Сегодня 11:30

Часовой пояс: GMT + 4



Вы не можете начинать темы
Вы не можете отвечать на сообщения
Вы не можете редактировать свои сообщения
Вы не можете удалять свои сообщения
Вы не можете голосовать в опросах
Вы не можете прикреплять файлы к сообщениям
Вы не можете скачивать файлы