Три икса / xXx (Роб Коэн / Rob Cohen) [2002, США, боевик, триллер, BDRip 720p] Dub + MVO + DVO + 2x AVO + VO + Original eng + Sub rus, eng

Ответить на тему
 
Автор Сообщение

user ®

Стаж: 7 лет 7 месяцев

Сообщений: 20008

Пост Пост: #1 от 15-Дек-2013 03:25

[Цитировать]

Три икса / xXx
Страна: США
Жанр: боевик, триллер
Год выпуска: 2002
Продолжительность: 02:04:06
Перевод#1: Профессиональный (дублированный)
Перевод#2: Профессиональный (многоголосый закадровый) | Киномания
Перевод#3: Профессиональный (двухголосый закадровый)
Перевод#4: Студийный (одноголосый закадровый), П. Гланц
Перевод#5: Авторский (одноголосый закадровый), Ю. Медведев
Перевод#6: Авторский (одноголосый закадровый), С. Рябов
Cубтитры: русские, английские
Оригинальная аудиодорожка: английский
Режиссер: Роб Коэн / Rob Cohen
В ролях: Вин Дизель, Азия Ардженто, Мартон Чокаш, Сэмюэл Л. Джексон, Майкл Руф, Вернер Даен, Петр Якл, Ян Павел Филипенски, Том Эверетт, Дэнни Трехо, Томас Йен Гриффит
Описание: Ксандер Кэйдж — спортсмен-экстремал. Этот человек не только выполняет уникальные смертельные трюки, но еще и записывает их на видео, размещая записи на одном из подпольных сайтов. Этот жестокий парень может сделать, то, что не в силах выполнить другие люди. Именно поэтому он привлекает к себе внимание одного из агентов Управления национальной безопасности. Агент Гиббсон вербует Кэйджа. Оснащенный самой современной шпионской техникой и оружием, Кэйдж должен просочится в русские криминальные круги, находящиеся в Праге. Ничто не может помешать этому шпиону нового поколения ХХХ выполнить свою миссию, и никто не способен отвлечь его от задания. Никто, кроме таинственной девушки Елены...

Доп. информация: дубляж и Киномания с HDCLUB, остальное с Кинозала, всем спасибо
Тип релиза: BDRip 720p (от CtrlHD) | sample
Контейнер: MKV
Видео кодек: x264
Видео: AVC 1280x532 (2.40:1), 23.976 fps, ~7950 Kbps, 0.49 bit/pixel
Аудио #1: Russian DTS 6ch 48kHz 755Kbps | Dub
Аудио #2: Russian DTS 6ch 48kHz 755Kbps | MVO Киномания
Аудио #3: Russian AC3 6ch 48kHz 384Kbps | DVO
Аудио #4: Russian AC3 6ch 48kHz 640Kbps | VO Гланц
Аудио #5: Russian AC3 6ch 48kHz 640Kbps | AVO Медведев
Аудио #6: Russian AC3 6ch 48kHz 640Kbps | AVO Рябов
Аудио #7: English AC3 6ch 48kHz 640Kbps | Original
Формат субтитров: softsub (SRT)
Главы: есть

MediaInfo | x264

x264

x264 [info]: frame I:1634 Avg QP:17.74 size:105059
x264 [info]: frame P:43070 Avg QP:18.41 size: 54273
x264 [info]: frame B:133814 Avg QP:19.26 size: 36537
x264 [info]: consecutive B-frames: 4.1% 4.6% 10.9% 18.2% 16.1% 34.2% 5.9% 2.7% 3.3%
x264 [info]: encoded 178518 frames, 5.65 fps, 7949.22 kb/s, duration 8:46:52.55
General
Complete name : E:\...\xXx.2002.JPN.720p.BluRay.x264.Rus.Eng-CtrlHD.mkv
Format : Matroska
Format version : Version 2
File size : 10.8 GiB
Duration : 2h 4mn
Overall bit rate : 12.4 Mbps
Movie name : xXx.2002.JPN.720p.BluRay.x264.Rus.Eng-CtrlHD
Encoded date : UTC 2013-12-13 07:56:01
Writing application : mkvmerge v6.5.0 ('Isn't she lovely') built on Oct 20 2013 12:50:05
Writing library : libebml v1.3.0 + libmatroska v1.4.1
Video
ID : 1
Format : AVC
Format/Info : Advanced Video Codec
Format profile : High@L4.1
Format settings, CABAC : Yes
Format settings, ReFrames : 12 frames
Codec ID : V_MPEG4/ISO/AVC
Bit rate : 7 704 Kbps
Width : 1 280 pixels
Height : 532 pixels
Display aspect ratio : 2.40:1
Frame rate mode : Variable
Original frame rate : 23.976 fps
Color space : YUV
Chroma subsampling : 4:2:0
Bit depth : 8 bits
Scan type : Progressive
Title : xXx (2002)
Writing library : x264 core 133 r2334kMod a3ac64b
Encoding settings : cabac=1 / ref=12 / deblock=1:-3:-3 / analyse=0x3:0x113 / me=umh / subme=10 / psy=1 / fade_compensate=0.00 / psy_rd=1.10:0.00 / mixed_ref=1 / me_range=16 / chroma_me=1 / trellis=2 / 8x8dct=1 / cqm=0 / deadzone=21,11 / fast_pskip=0 / chroma_qp_offset=-2 / threads=6 / lookahead_threads=1 / sliced_threads=0 / nr=0 / decimate=0 / interlaced=0 / bluray_compat=0 / constrained_intra=0 / bframes=8 / b_pyramid=2 / b_adapt=2 / b_bias=0 / direct=3 / weightb=1 / open_gop=0 / weightp=2 / keyint=250 / keyint_min=23 / scenecut=40 / intra_refresh=0 / rc=crf / mbtree=0 / crf=19.0000 / qcomp=0.80 / qpmin=0 / qpmax=30 / qpstep=4 / ip_ratio=1.20 / pb_ratio=1.10 / aq=1:1.00
Language : English
Default : No
Forced : No
Audio #1
ID : 2
Format : DTS
Format/Info : Digital Theater Systems
Codec ID : A_DTS
Duration : 2h 4mn
Bit rate mode : Constant
Bit rate : 755 Kbps
Channel(s) : 6 channels
Channel positions : Front: L C R, Side: L R, LFE
Sampling rate : 48.0 KHz
Bit depth : 24 bits
Compression mode : Lossy
Stream size : 670 MiB (6%)
Title : Dub
Language : Russian
Default : Yes
Forced : No
Audio #2
ID : 3
Format : DTS
Format/Info : Digital Theater Systems
Codec ID : A_DTS
Duration : 2h 4mn
Bit rate mode : Constant
Bit rate : 755 Kbps
Channel(s) : 6 channels
Channel positions : Front: L C R, Side: L R, LFE
Sampling rate : 48.0 KHz
Bit depth : 24 bits
Compression mode : Lossy
Stream size : 670 MiB (6%)
Title : MVO Kinomania
Language : Russian
Default : No
Forced : No
Audio #3
ID : 4
Format : AC-3
Format/Info : Audio Coding 3
Mode extension : CM (complete main)
Format settings, Endianness : Big
Codec ID : A_AC3
Duration : 2h 4mn
Bit rate mode : Constant
Bit rate : 384 Kbps
Channel(s) : 6 channels
Channel positions : Front: L C R, Side: L R, LFE
Sampling rate : 48.0 KHz
Bit depth : 16 bits
Compression mode : Lossy
Stream size : 341 MiB (3%)
Title : DVO
Language : Russian
Default : No
Forced : No
Audio #4
ID : 5
Format : AC-3
Format/Info : Audio Coding 3
Mode extension : CM (complete main)
Format settings, Endianness : Big
Codec ID : A_AC3
Duration : 2h 4mn
Bit rate mode : Constant
Bit rate : 640 Kbps
Channel(s) : 6 channels
Channel positions : Front: L C R, Side: L R, LFE
Sampling rate : 48.0 KHz
Bit depth : 16 bits
Compression mode : Lossy
Stream size : 568 MiB (5%)
Title : AVO Glanz
Language : Russian
Default : No
Forced : No
Audio #5
ID : 6
Format : AC-3
Format/Info : Audio Coding 3
Mode extension : CM (complete main)
Format settings, Endianness : Big
Codec ID : A_AC3
Duration : 2h 4mn
Bit rate mode : Constant
Bit rate : 640 Kbps
Channel(s) : 6 channels
Channel positions : Front: L C R, Side: L R, LFE
Sampling rate : 48.0 KHz
Bit depth : 16 bits
Compression mode : Lossy
Stream size : 568 MiB (5%)
Title : AVO Medvedev
Language : Russian
Default : No
Forced : No
Audio #6
ID : 7
Format : AC-3
Format/Info : Audio Coding 3
Mode extension : CM (complete main)
Format settings, Endianness : Big
Codec ID : A_AC3
Duration : 2h 4mn
Bit rate mode : Constant
Bit rate : 640 Kbps
Channel(s) : 6 channels
Channel positions : Front: L C R, Side: L R, LFE
Sampling rate : 48.0 KHz
Bit depth : 16 bits
Compression mode : Lossy
Stream size : 568 MiB (5%)
Title : AVO Ryabov
Language : Russian
Default : No
Forced : No
Audio #7
ID : 8
Format : AC-3
Format/Info : Audio Coding 3
Mode extension : CM (complete main)
Format settings, Endianness : Big
Codec ID : A_AC3
Duration : 2h 4mn
Bit rate mode : Constant
Bit rate : 640 Kbps
Channel(s) : 6 channels
Channel positions : Front: L C R, Side: L R, LFE
Sampling rate : 48.0 KHz
Bit depth : 16 bits
Compression mode : Lossy
Stream size : 568 MiB (5%)
Title : Original
Language : English
Default : No
Forced : No
Text #1
ID : 9
Format : UTF-8
Codec ID : S_TEXT/UTF8
Codec ID/Info : UTF-8 Plain Text
Language : Russian
Default : No
Forced : No
Text #2
ID : 10
Format : UTF-8
Codec ID : S_TEXT/UTF8
Codec ID/Info : UTF-8 Plain Text
Language : English
Default : No
Forced : No
Menu
00:00:00.000 : en:Chapter 1
00:03:41.763 : en:Chapter 2
00:05:40.423 : en:Chapter 3
00:10:05.438 : en:Chapter 4
00:12:29.415 : en:Chapter 5
00:19:22.370 : en:Chapter 6
00:21:51.810 : en:Chapter 7
00:23:59.396 : en:Chapter 8
00:27:51.044 : en:Chapter 9
00:32:27.779 : en:Chapter 10
00:34:19.391 : en:Chapter 11
00:42:18.828 : en:Chapter 12
00:45:49.163 : en:Chapter 13
00:50:25.648 : en:Chapter 14
00:57:10.385 : en:Chapter 15
01:01:16.298 : en:Chapter 16
01:04:33.828 : en:Chapter 17
01:12:01.192 : en:Chapter 18
01:14:50.236 : en:Chapter 19
01:17:43.075 : en:Chapter 20
01:20:59.521 : en:Chapter 21
01:26:36.108 : en:Chapter 22
01:32:44.559 : en:Chapter 23
01:38:05.463 : en:Chapter 24
01:39:01.227 : en:Chapter 25
01:44:08.951 : en:Chapter 26
01:45:57.017 : en:Chapter 27
01:49:40.616 : en:Chapter 28

Скриншоты

source vs




Скачать

Скачать торрент!

Как скачивать? · Что такое торрент? · Рейтинг и ограничения

Сайт не распространяет и не хранит электронные версии произведений, а лишь предоставляет доступ к создаваемому пользователями каталогу ссылок на торрент-файлы, которые содержат только списки хеш-сумм

[Профиль] [ЛС]
Показать сообщения:    
Ответить на тему

Текущее время: Сегодня 22:32

Часовой пояс: GMT + 4



Вы не можете начинать темы
Вы не можете отвечать на сообщения
Вы не можете редактировать свои сообщения
Вы не можете удалять свои сообщения
Вы не можете голосовать в опросах
Вы не можете прикреплять файлы к сообщениям
Вы не можете скачивать файлы