Сладостная месть / Сладкая месть / Sweet Revenge (Марк Собель / Mark Sobel) [1987, США, боевик, приключения, HDTV 1080i] DVO (НТВ+) + original (eng)

Ответить на тему
 
Автор Сообщение

user ®

Стаж: 7 лет 7 месяцев

Сообщений: 20008

Пост Пост: #1 от 15-Дек-2013 03:25

[Цитировать]

Сладостная месть / Сладкая месть / Sweet Revenge
Год выпуска: 1987
Страна: США
Жанр: боевик, приключения
Продолжительность: 01:15:50
Перевод: Профессиональный (двухголосый, закадровый)НТВ+
Субтитры: отсутствуют
Оригинальная аудиодорожка: английский
Режиссер: Марк Собель / Mark Sobel
В ролях: Нэнси Аллен, Тэд Шакелфорд, Мартин Ландау, Сэл Ланди, Мишель Литтл, Джина Гершон, Лотис Ки, Стэйси Адамс, Лео Мартинез, Анджело Кастро мл
Описание: В Лос-Анджелесе таинственным образом пропадают молодые женщины. Известная тележурналистка начинает собственное независимое расследование. Она узнает, что похищенных переправляют в одну из азиатских стран, где «сажают на иглу», а потом продают. Журналистку, ведущую независимое расследование, вместе с дочерью похищают и продают в рабство. Чудом освободившись, она решает отомстить своему обидчику. Глава мафии Цицерон приказывает поймать ее только живую. Начинается охота, но Цицерон не знает, что охоту на него объявляет журналистка. Кто кого поймает?

Качество: HDTV 1080i
Формат: MKV
Видео кодек: H.264
Аудио кодек: AC3
Видео: 1920 x 1080; 25 fps; 7 479 Kbps
Аудио1: Русский, AC3 2.0 192 Kbps 48,0 КГц(DVO)
Аудио2: English, AC3 2.0 384 Kbps 48,0 КГц(Original)

MediaInfo

D:\HDFILMS\Sweet.Revenge.1987.HDTV.1080i.Rus.Eng.mkv
General
Unique ID : 207793556508144843051672876965469354012 (0x9C53955160B36BF28159419B5A23F81C)
Complete name : D:\HDFILMS\Sweet.Revenge.1987.HDTV.1080i.Rus.Eng.mkv
Format : Matroska
File size : 4.35 GiB
Duration : 1h 15mn
Overall bit rate : 8 219 Kbps
Encoded date : UTC 2013-12-14 06:58:26
Writing application : mkvmerge v6.2.0 ('Promised Land') built on Apr 28 2013 12:22:01
Writing library : libebml v1.3.0 + libmatroska v1.4.0
Video #1
ID : 1
Format : AVC
Format/Info : Advanced Video Codec
Format profile : High@L4.0
Format settings, CABAC : Yes
Format settings, ReFrames : 3 frames
Format settings, GOP : M=1, N=12
Codec ID : V_MPEG4/ISO/AVC
Duration : 1h 15mn
Bit rate : 7 479 Kbps
Width : 1 920 pixels
Height : 1 080 pixels
Display aspect ratio : 16:9
Frame rate : 50.000 fps
Original frame rate : 25.000 fps
Standard : Component
Color space : YUV
Chroma subsampling : 4:2:0
Bit depth : 8 bits
Scan type : Interlaced
Scan order : Top Field First
Bits/(Pixel*Frame) : 0.072
Stream size : 3.96 GiB (91%)
Title : Sweet.Revenge.1987.MGM.HD.1080i
Color primaries : BT.709-5, BT.1361, IEC 61966-2-4, SMPTE RP177
Transfer characteristics : BT.709-5, BT.1361
Matrix coefficients : BT.709-5, BT.1361, IEC 61966-2-4 709, SMPTE RP177
Audio #2
ID : 2
Format : AC-3
Format/Info : Audio Coding 3
Mode extension : CM (complete main)
Codec ID : A_AC3
Duration : 1h 15mn
Bit rate mode : Constant
Bit rate : 192 Kbps
Channel(s) : 2 channels
Channel positions : Front: L R
Sampling rate : 48.0 KHz
Bit depth : 16 bits
Compression mode : Lossy
Stream size : 104 MiB (2%)
Title : DVO AC3 2.0 192 kbps
Language : Russian
Audio #3
ID : 3
Format : AC-3
Format/Info : Audio Coding 3
Mode extension : CM (complete main)
Codec ID : A_AC3
Duration : 1h 15mn
Bit rate mode : Constant
Bit rate : 384 Kbps
Channel(s) : 2 channels
Channel positions : Front: L R
Sampling rate : 48.0 KHz
Bit depth : 16 bits
Compression mode : Lossy
Stream size : 208 MiB (5%)
Title : Original AC3 2.0 384 kbps
Language : English

Скриншоты


Скачать

Скачать торрент!

Как скачивать? · Что такое торрент? · Рейтинг и ограничения

Сайт не распространяет и не хранит электронные версии произведений, а лишь предоставляет доступ к создаваемому пользователями каталогу ссылок на торрент-файлы, которые содержат только списки хеш-сумм

[Профиль] [ЛС]
Показать сообщения:    
Ответить на тему

Текущее время: Сегодня 11:44

Часовой пояс: GMT + 4



Вы не можете начинать темы
Вы не можете отвечать на сообщения
Вы не можете редактировать свои сообщения
Вы не можете удалять свои сообщения
Вы не можете голосовать в опросах
Вы не можете прикреплять файлы к сообщениям
Вы не можете скачивать файлы