Призрачный патруль / R.I.P.D. (Роберт Швентке / Robert Schwentke) [2013, США, фантастика, фэнтези, боевик, комедия, криминал, BDRemux 1080p] Dub + AVO (Л. Володарский) + Original (Eng) + Subs (Rus,Ukr, Eng)

Ответить на тему
 
Автор Сообщение

user ®

Стаж: 7 лет 7 месяцев

Сообщений: 20008

Пост Пост: #1 от 15-Дек-2013 03:25

[Цитировать]

Призрачный патруль / R.I.P.D.

-
-Страна: США
Студия: Universal Pictures, Original Film, Rhythm & Hues, Dark Horse Entertainment, RSIG Security
Жанр: фантастика, фэнтези, боевик, комедия, криминал
Год выпуска: 2013
Продолжительность: 01:35:49--Перевод 1: Профессиональный (дублированный) Blu-ray
Перевод 2: Авторский (одноголосый закадровый) Л. Володарский
Cубтитры: русские (forced, full), украинские, английские (full, SDH, SDH-COLORED)
Оригинальная аудиодорожка: английский--Режиссер: Роберт Швентке / Robert Schwentke
В ролях: Райан Рейнольдс, Кевин Бейкон, Джефф Бриджес, Мэри-Луиз Паркер, Девин Рэтрей, Роберт Неппер, Стефани Зостак, Джеймс Хонг, Майк О’Мэлли, Мариса Миллер, Джонатан Ретамоза-Давила, Зои Аггелики, Качина Дечерт, Майк Йебба, Тобиаш Сигал...--Описание: Детективы из загробного департамента расследуют преступления по ту сторону могилы и гоняются за не в меру ретивой нечистью. Молодой коп, после гибели от руки неизвестного злоумышленника угодивший в мир иной, в обмен на помощь при расследовании собственного убийства обязуется следующие сто лет посвятить службе в R.I.P.D. и, получив в напарники брутального стрелка эпохи вестернов, выходит на борьбу с неупокоившимся злом.--imdb | kinopoisk | Сэмпл--Тип релиза: BDRemux 1080p [R.I.P.D. 2013 1080p CEE Blu-ray AVC DTS-HD MA 5.1-HDCLUB]
Контейнер: MKV
Видео: MPEG-4 AVC / 29991 kbps / 1920x1080 / 23,976 fps / 16:9 / High Profile 4.1
Аудио 1: Russian DTS / 5.1 / 48 kHz / 768 kbps / 24 bits |Dub, Blu-ray|
Аудио 2: Russian DTS-HD Master Audio / 5.1 / 48 kHz / 3956 kbps / 24 bits (DTS Core: 5.1 / 48 kHz / 1509 kbps / 24 bits) |Л. Володарский|
Аудио 3: English DTS-HD Master Audio / 5.1 / 48 kHz / 3927 kbps / 24 bits (DTS Core: 5.1 / 48 kHz / 1509 kbps / 24 bits) |original|
Аудио 4: English AC3 / 2.0 / 48 kHz / 192 kbps / 16 bits |Descriptive|
Формат субтитров: softsub [SRT]

MediaInfo

Общее
Уникальный идентификатор                 : 228769290207450609380596919812508381426 (0xAC1B5CD5C1D059C5AE5BD766550470F2)
Полное имя                               : G:\HD\Призрачный патруль.2013.Blu-Ray.Remux.(1080p).mkv
Формат                                   : Matroska
Версия формата                           : Version 2
Размер файла                             : 25,9 Гбайт
Продолжительность                        : 1 ч. 35 м.
Режим общего битрейта                    : Переменный
Общий поток                              : 38,7 Мбит/сек
Дата кодирования                         : UTC 2013-12-14 14:31:31
Программа кодирования                    : mkvmerge v5.8.0 ('No Sleep / Pillow') built on Sep  2 2012 15:37:04
Библиотека кодирования                   : libebml v1.2.3 + libmatroska v1.3.0
Attachment                               : Yes
Видео
Идентификатор                            : 1
Формат                                   : AVC
Формат/Информация                        : Advanced Video Codec
Профиль формата                          : High@L4.1
Параметр CABAC формата                   : Да
Параметр ReFrames формата                : 4 кадра
Параметр GOP формата                     : M=3, N=12
Режим смешивания                         : Container profile=Unknown@0.0
Идентификатор кодека                     : V_MPEG4/ISO/AVC
Продолжительность                        : 1 ч. 35 м.
Вид битрейта                             : Переменный
Максимальный битрейт                     : 32,0 Мбит/сек
Ширина                                   : 1920 пикселей
Высота                                   : 1080 пикселей
Соотношение сторон                       : 16:9
Режим частоты кадров                     : Постоянный
Частота кадров                           : 23,976 кадра/сек
Цветовое пространство                    : YUV
Субдискретизация насыщенности            : 4:2:0
Битовая глубина                          : 8 бит
Тип развёртки                            : Прогрессивная
Default                                  : Да
Forced                                   : Нет
Аудио #1
Идентификатор                            : 2
Формат                                   : DTS
Формат/Информация                        : Digital Theater Systems
Режим                                    : 16
Параметр Endianness формата              : Big
Идентификатор кодека                     : A_DTS
Продолжительность                        : 1 ч. 35 м.
Вид битрейта                             : Постоянный
Битрейт                                  : 768 Кбит/сек
Каналы                                   : 6 каналов
Расположение каналов                     : Front: L C R, Side: L R, LFE
Частота                                  : 48,0 КГц
Битовая глубина                          : 24 бит
Метод сжатия                             : С потерями
Размер потока                            : 527 Мбайт (2%)
Заголовок                                : Dub, Blu-ray
Язык                                     : Russian
Default                                  : Нет
Forced                                   : Нет
Аудио #2
Идентификатор                            : 3
Формат                                   : DTS
Формат/Информация                        : Digital Theater Systems
Профиль формата                          : MA / Core
Режим                                    : 16
Параметр Endianness формата              : Big
Идентификатор кодека                     : A_DTS
Продолжительность                        : 1 ч. 35 м.
Вид битрейта                             : Переменный
Битрейт                                  : Неизвестно / 1509 Кбит/сек
Каналы                                   : 6 каналов
Расположение каналов                     : Front: L C R, Side: L R, LFE
Частота                                  : 48,0 КГц
Битовая глубина                          : 24 бит
Метод сжатия                             : Без потерь / Lossy
Заголовок                                : Л. Володарский
Язык                                     : Russian
Default                                  : Да
Forced                                   : Нет
Аудио #3
Идентификатор                            : 4
Формат                                   : DTS
Формат/Информация                        : Digital Theater Systems
Профиль формата                          : MA / Core
Режим                                    : 16
Параметр Endianness формата              : Big
Идентификатор кодека                     : A_DTS
Продолжительность                        : 1 ч. 35 м.
Вид битрейта                             : Переменный
Битрейт                                  : Неизвестно / 1509 Кбит/сек
Каналы                                   : 6 каналов
Расположение каналов                     : Front: L C R, Side: L R, LFE
Частота                                  : 48,0 КГц
Битовая глубина                          : 24 бит
Метод сжатия                             : Без потерь / Lossy
Язык                                     : English
Default                                  : Нет
Forced                                   : Нет
Аудио #4
Идентификатор                            : 5
Формат                                   : AC-3
Формат/Информация                        : Audio Coding 3
Профиль формата                          : Dolby Digital
Расширение режима                        : CM (complete main)
Параметр Endianness формата              : Big
Идентификатор кодека                     : A_AC3
Продолжительность                        : 1 ч. 35 м.
Вид битрейта                             : Постоянный
Битрейт                                  : 192 Кбит/сек
Каналы                                   : 2 канала
Расположение каналов                     : Front: L R
Частота                                  : 48,0 КГц
Битовая глубина                          : 16 бит
Метод сжатия                             : С потерями
Размер потока                            : 132 Мбайт (0%)
Заголовок                                : Descriptive
Язык                                     : English
Default                                  : Нет
Forced                                   : Нет
Текст #1
Идентификатор                            : 6
Формат                                   : UTF-8
Идентификатор кодека                     : S_TEXT/UTF8
Идентификатор кодека/Информация          : UTF-8 Plain Text
Заголовок                                : forced
Язык                                     : Russian
Default                                  : Да
Forced                                   : Нет
Текст #2
Идентификатор                            : 7
Формат                                   : UTF-8
Идентификатор кодека                     : S_TEXT/UTF8
Идентификатор кодека/Информация          : UTF-8 Plain Text
Заголовок                                : full
Язык                                     : Russian
Default                                  : Нет
Forced                                   : Нет
Текст #3
Идентификатор                            : 8
Формат                                   : UTF-8
Идентификатор кодека                     : S_TEXT/UTF8
Идентификатор кодека/Информация          : UTF-8 Plain Text
Заголовок                                : full
Язык                                     : Ukrainian
Default                                  : Нет
Forced                                   : Нет
Текст #4
Идентификатор                            : 9
Формат                                   : UTF-8
Идентификатор кодека                     : S_TEXT/UTF8
Идентификатор кодека/Информация          : UTF-8 Plain Text
Заголовок                                : full
Язык                                     : English
Default                                  : Нет
Forced                                   : Нет
Текст #5
Идентификатор                            : 10
Формат                                   : UTF-8
Идентификатор кодека                     : S_TEXT/UTF8
Идентификатор кодека/Информация          : UTF-8 Plain Text
Заголовок                                : SDH
Язык                                     : English
Default                                  : Нет
Forced                                   : Нет
Текст #6
Идентификатор                            : 11
Формат                                   : UTF-8
Идентификатор кодека                     : S_TEXT/UTF8
Идентификатор кодека/Информация          : UTF-8 Plain Text
Заголовок                                : SDH-COLORED
Язык                                     : English
Default                                  : Нет
Forced                                   : Нет
Меню
00:00:00.000                             : :Chapter 01
00:03:57.111                             : :Chapter 02
00:09:13.135                             : :Chapter 03
00:14:30.578                             : :Chapter 04
00:17:58.410                             : :Chapter 05
00:22:30.599                             : :Chapter 06
00:27:09.502                             : :Chapter 07
00:33:33.511                             : :Chapter 08
00:38:46.157                             : :Chapter 09
00:43:27.646                             : :Chapter 10
00:46:31.747                             : :Chapter 11
00:52:04.037                             : :Chapter 12
00:55:52.098                             : :Chapter 13
01:02:15.982                             : :Chapter 14
01:07:01.100                             : :Chapter 15
01:10:35.689                             : :Chapter 16
01:13:16.308                             : :Chapter 17
01:17:52.125                             : :Chapter 18
01:23:00.934                             : :Chapter 19
01:27:27.909                             : :Chapter 20

Скриншоты


Дополнительно

За перевод Л. Володарского спасибо форуму е180:
Nadoelo, jorn2, Jiraya87, каак, фёдор александрович, SJC, User, bla_, Эдуард, nimph, carnivale, SavineX78, zeleniy, Tio, YoGuRt-82, пуля, Daniel Rock, ZeDOK, Hattori Hanzo, luka69, furria62, Iceman, xerman13, dark1982, dir, audiolubitel, olegsoleg, Savely, MyxAmoP, ANISKIN50, vik19662007, Nick, uchitel538, Guyver, nolya, vavana, kinobbk, Lee Ray, _shurik_, Диммон, Евгений_1, Марлон
Скачать

Скачать торрент!

Как скачивать? · Что такое торрент? · Рейтинг и ограничения

Сайт не распространяет и не хранит электронные версии произведений, а лишь предоставляет доступ к создаваемому пользователями каталогу ссылок на торрент-файлы, которые содержат только списки хеш-сумм

[Профиль] [ЛС]
Показать сообщения:    
Ответить на тему

Текущее время: Сегодня 16:11

Часовой пояс: GMT + 4



Вы не можете начинать темы
Вы не можете отвечать на сообщения
Вы не можете редактировать свои сообщения
Вы не можете удалять свои сообщения
Вы не можете голосовать в опросах
Вы не можете прикреплять файлы к сообщениям
Вы не можете скачивать файлы