12 лет рабства / 12 Years a Slave (Стив МакКуин / Steve McQueen) [2013, США, Великобритания, драма, биография, история, TeleSynch] Dub

Ответить на тему
 
Автор Сообщение

user ®

Стаж: 7 лет 7 месяцев

Сообщений: 20008

Пост Пост: #1 от 15-Дек-2013 03:25

[Цитировать]

12 лет рабства12 Years a Slave«The extraordinary true story of Solomon Northup»- Страна: США, Великобритания
Жанр: драма, биография, история
Год выпуска: 2013
Продолжительность: 02:06:20-Перевод: Профессиональный (полное дублирование)
Субтитры: нет
Режиссер: Стив МакКуин / Steve McQueen
В ролях: Чиветель Эджиофор, Майкл Фассбендер, Бенедикт Камбербэтч, Пол Дано, Пол Джаматти, Лупита Нионго, Сара Полсон, Брэд Питт, Элфри Вудард, Куавенжаней Уоллис, Дуайт Генри, Дикки Гравуа-Описание: Соломон Нортап был женатым и образованным мужчиной, который жил и работал в Нью-Йорке, когда два человека однажды предложили ему привлекательную работу в Вашингтоне. По прибытии он был похищен, стал рабом и влачил жалкую жизнь, переходя от одного хозяина к другому.-


MPAA: R - Лицам до 17 лет обязательно присутствие взрослого-

Доп. Информация

Сценарий: Джон Ридли / John Ridley, Соломон Нортап / Solomon Northup
Продюсер: Деде Гарднер / Dede Gardner, Энтони Катагас / Anthony Katagas, Джереми Клейнер / Jeremy Kleiner, Стив МакКуин / Steve McQueen, Арнон Милчэн / Arnon Milchan
Оператор: Шон Боббитт / Sean Bobbitt
Композитор: Ханс Циммер / Hans Zimmer
Сборы в США: $35 631 688
Мировая премьера: 30 августа 2013
-Качество: TeleSynch
Контейнер: AVI
Видео: XviD, 720x384 (1.875), 1404 kbps, 29,970 fps, 0,169 bpp
Аудио: MP3 / 2.0 / 48 kHz / 128 kbps /-

Знаете ли Вы, что...

  • В этом фильме снялся актер Таран Киллэм, который часто пародирует Брэда Питта на шоу «Субботним вечером в прямом эфире» (1975). И хотя Брэд Питт тоже снялся в этом фильме, на съемочной площадке актеры ни разу не пересекались. Компания Питта - Plan B - занималась продюсированием фильма, сам же актер исполнил в нем лишь небольшую роль.
  • Этот же сюжет, основанный на мемуарах, написанных в 1853 году, использовался в телевизионном фильме «Одиссея Соломона Нортапа» (1984).
  • Съемки фильма заняли 35 дней. Они проходили на плантации в Вашери, штат Луизиана, недалеко от того места, где содержался реальный Нортап. Порт Нового Орлеана и Саратога воссоздали в декорациях.
  • Спустя год после возвращения домой Соломон Нортап опубликовал свои мемуары. Книга вышла в свет за 9 лет до Гражданской войны, стала бестселлером и вызвала огромную дискуссию в американском обществе. Однако в 20 веке она не переиздавалась и была забыта до тех пор, пока Сью Икин в 1968 году не написала работу, документально подтвердившую историю Нортапа. Режиссер Стив МакКуин узнал о существовании мемуаров Нортапа от своей жены.
  • еще 1 факт
  • В одной из сцен можно заметить в болоте водяной гаицинт (эйхорния), водное растение, произрастающее в Южной Америке. Эти растения были ввезены в Северную Америку только после 1884 года.

Media Info

General
Complete name : G:\12.Let.Rabstva.2013.D.TS_1400MB.avi
Format : AVI
Format/Info : Audio Video Interleave
File size : 1.36 GiB
Duration : 2h 6mn
Overall bit rate : 1 544 Kbps
Writing application : VirtualDubModRus 1.5.10.2 (build 2542/release)
Writing library : VirtualDubMod build 2542/release
Video
ID : 0
Format : MPEG-4 Visual
Format profile : Advanced Simple@L5
Format settings, BVOP : 2
Format settings, QPel : No
Format settings, GMC : No warppoints
Format settings, Matrix : Custom
Codec ID : XVID
Codec ID/Hint : XviD
Duration : 2h 6mn
Bit rate : 1 404 Kbps
Width : 720 pixels
Height : 384 pixels
Display aspect ratio : 1.875
Frame rate : 29.970 fps
Color space : YUV
Chroma subsampling : 4:2:0
Bit depth : 8 bits
Scan type : Progressive
Compression mode : Lossy
Bits/(Pixel*Frame) : 0.169
Stream size : 1.24 GiB (91%)
Writing library : XviD 1.2.1 (UTC 2008-12-04)
Audio
ID : 1
Format : MPEG Audio
Format version : Version 1
Format profile : Layer 3
Mode : Joint stereo
Mode extension : MS Stereo
Codec ID : 55
Codec ID/Hint : MP3
Duration : 2h 6mn
Bit rate mode : Constant
Bit rate : 128 Kbps
Channel(s) : 2 channels
Sampling rate : 48.0 KHz
Compression mode : Lossy
Stream size : 116 MiB (8%)
Alignment : Aligned on interleaves
Interleave, duration : 33 ms (1.00 video frame)
Interleave, preload duration : 504 ms
Writing library : LAME3.99
Encoding settings : -m j -V 4 -q 2 -lowpass 17 -b 128

Скриншот с названием фильма

Скриншоты

Скачать

Скачать торрент!

Как скачивать? · Что такое торрент? · Рейтинг и ограничения

Сайт не распространяет и не хранит электронные версии произведений, а лишь предоставляет доступ к создаваемому пользователями каталогу ссылок на торрент-файлы, которые содержат только списки хеш-сумм

[Профиль] [ЛС]
Показать сообщения:    
Ответить на тему

Текущее время: Сегодня 06:01

Часовой пояс: GMT + 4



Вы не можете начинать темы
Вы не можете отвечать на сообщения
Вы не можете редактировать свои сообщения
Вы не можете удалять свои сообщения
Вы не можете голосовать в опросах
Вы не можете прикреплять файлы к сообщениям
Вы не можете скачивать файлы