Мачете убивает / Machete Kills (Роберт Родригес / Robert Rodriguez) [2013, США, Россия, боевик, комедия, HDRip] Dub

Ответить на тему
 
Автор Сообщение

user ®

Стаж: 7 лет 7 месяцев

Сообщений: 20008

Пост Пост: #1 от 14-Дек-2013 14:50

[Цитировать]

Мачете убивает / Machete Kills- Страна: США, Россия
Жанр: боевик, комедия
Год выпуска: 2013
Продолжительность: 01:47:59
Перевод: Профессиональный (дублированный)
Cубтитры: нет-Режиссер: Роберт Родригес / Robert Rodriguez
В ролях: Дэнни Трехо (Machete), Мишель Родригес (Luz), Эмбер Хёрд (Miss San Antonio), Демиан Бишир (Mendez), Мэл Гибсон (Voz), София Вергара (Desdemona), Чарли Шин (Mr. President), Леди Гага (La CamaleГіn), Алекса Вега (KillJoy), Антонио Бандерас (El CamaleГіn 4), Кьюба Гудинг мл. (El CamaleГіn 2).
Описание: Правительство США вербует Мачете для миссии, которую не под силу выполнить простому смертному. Мачете прорывается в Мексику, чтобы схватить безумного лидера карательного отряда и эксцентричного миллиардера, торгующего оружием, который, в свою очередь, лелеет мечту начать войну планетарного масштаба и запустить смертельно опасное оружие в космос. И только Мачете может предотвратить этот глобальный хаос.-Автор рипа: Scarabey
Качество видео: HDRip
Формат видео: AVI | Sample
Видео: 624x336 (1.86:1), 24.000 fps, XviD build 73 ~825 kbps avg, 0.16 bit/pixel
Аудио: 48 kHz, MPEG Layer 3, 2 ch, ~128.00 kbps avg (лицензия)

Скриншоты

Медиаинфо

Format : AVI
Format/Info : Audio Video Interleave
File size : 744 MiB
Duration : 1h 47mn
Overall bit rate : 963 Kbps
Writing application : VirtualDubMod 1.5.10.3 | (build 2550/release)
Writing library : VirtualDubMod build 2550/release
Video
ID : 0
Format : MPEG-4 Visual
Format profile : Advanced Simple@L5
Format settings, BVOP : Yes
Format settings, QPel : No
Format settings, GMC : No warppoints
Format settings, Matrix : Custom
Codec ID : XVID
Codec ID/Hint : XviD
Duration : 1h 47mn
Bit rate : 826 Kbps
Width : 624 pixels
Height : 336 pixels
Display aspect ratio : 1.857
Frame rate : 24.000 fps
Color space : YUV
Chroma subsampling : 4:2:0
Bit depth : 8 bits
Scan type : Progressive
Bits/(Pixel*Frame) : 0.164
Stream size : 638 MiB (86%)
Writing library : XviD 73
Audio
ID : 1
Format : MPEG Audio
Format version : Version 1
Format profile : Layer 3
Codec ID : 55
Codec ID/Hint : MP3
Duration : 1h 47mn
Bit rate mode : Constant
Bit rate : 128 Kbps
Channel(s) : 2 channels
Sampling rate : 48.0 KHz
Stream size : 98.9 MiB (13%)
Alignment : Aligned on interleaves
Interleave, duration : 42 ms (1.00 video frame)
Interleave, preload duration : 504 ms
Writing library : LAME3.99r
Encoding settings : -m s -V 4 -q 2 -lowpass 17 -b 128
Скачать

Скачать торрент!

Как скачивать? · Что такое торрент? · Рейтинг и ограничения

Сайт не распространяет и не хранит электронные версии произведений, а лишь предоставляет доступ к создаваемому пользователями каталогу ссылок на торрент-файлы, которые содержат только списки хеш-сумм

[Профиль] [ЛС]
Показать сообщения:    
Ответить на тему

Текущее время: Сегодня 03:58

Часовой пояс: GMT + 4



Вы не можете начинать темы
Вы не можете отвечать на сообщения
Вы не можете редактировать свои сообщения
Вы не можете удалять свои сообщения
Вы не можете голосовать в опросах
Вы не можете прикреплять файлы к сообщениям
Вы не можете скачивать файлы