Козы / Козлиный остров / Standing Up / Goat Island (Ди Джей Карузо / D.J. Caruso) [2013, США, Драма, семейный, WEB-DLRip] VO (humbert sound studio)

Ответить на тему
 
Автор Сообщение

user ®

Стаж: 7 лет 7 месяцев

Сообщений: 20008

Пост Пост: #1 от 14-Дек-2013 14:50

[Цитировать]

Козы / Козлиный остров / Standing Up / Goat Island«They ran away and found themselves»- Страна: США
Жанр: Драма, семейный
Год выпуска: 2013
Продолжительность: 01:33:12-Перевод: Одноголосый закадровый [humbert sound studio]
Cубтитры: нет-Режиссер: Ди Джей Карузо / D.J. Caruso-В ролях: Чандлер Кентербери, Анналиса Бассо, Рада Митчелл, Вэл Килмер, Кейт Флиппен, Уильям Дж. Харрисон, Джаред Кеммерлинг, Кейт Маберли, Блейк Гриффин, Чарльз Кэррол-Описание: Двух подростков — жертв жестокого розыгрыша, популярного в их летнем лагере — раздевают догола и оставляют ночевать на безлюдном острове. Вместо того, чтобы униженными вернуться в лагерь, они решают сбежать. Впереди их ждет трехдневная одиссея, полная неожиданных открытий.-Sample | IMDB | КиноПоиск-Тип релиза: WEB-DLRip [исх. WEB-DL 1080p]
Формат видео: AVI-Видео: 720x288 (2.50:1), 23.976 fps, XviD build 50, 2045 kbps avg, 0.41 bit/pixel
Аудио: 48 kHz, AC3 Dolby Digital, 2/0 (L,R) ch, 192.00 kbps avg [Russian_VO]-Релиз группы:-

MediaInfo

General
Complete name : D:\Мои раздачи\Standing Up_WEB-DLRip_RG_All_Films.avi
Format : AVI
Format/Info : Audio Video Interleave
File size : 1.46 GiB
Duration : 1h 33mn
Overall bit rate : 2 247 Kbps
Writing application : VirtualDubMod 1.6.0.0 SURROUND (build 2560/release)
Writing library : VirtualDubMod build 2560/release
Video
ID : 0
Format : MPEG-4 Visual
Format profile : Advanced Simple@L5
Format settings, BVOP : Yes
Format settings, QPel : No
Format settings, GMC : No warppoints
Format settings, Matrix : Custom
Codec ID : XVID
Codec ID/Hint : XviD
Duration : 1h 33mn
Bit rate : 2 046 Kbps
Width : 720 pixels
Height : 288 pixels
Display aspect ratio : 2.500
Frame rate : 23.976 fps
Color space : YUV
Chroma subsampling : 4:2:0
Bit depth : 8 bits
Scan type : Progressive
Compression mode : Lossy
Bits/(Pixel*Frame) : 0.411
Stream size : 1.33 GiB (91%)
Writing library : XviD 1.2.1 (UTC 2008-12-04)
Audio
ID : 1
Format : AC-3
Format/Info : Audio Coding 3
Mode extension : CM (complete main)
Codec ID : 2000
Duration : 1h 33mn
Bit rate mode : Constant
Bit rate : 192 Kbps
Channel(s) : 2 channels
Channel positions : Front: L R
Sampling rate : 48.0 KHz
Bit depth : 16 bits
Compression mode : Lossy
Stream size : 128 MiB (9%)
Alignment : Split accross interleaves
Interleave, duration : 42 ms (1.00 video frame)
Interleave, preload duration : 500 ms

Скриншоты

Скачать

Скачать торрент!

Как скачивать? · Что такое торрент? · Рейтинг и ограничения

Сайт не распространяет и не хранит электронные версии произведений, а лишь предоставляет доступ к создаваемому пользователями каталогу ссылок на торрент-файлы, которые содержат только списки хеш-сумм

[Профиль] [ЛС]
Показать сообщения:    
Ответить на тему

Текущее время: Сегодня 11:55

Часовой пояс: GMT + 4



Вы не можете начинать темы
Вы не можете отвечать на сообщения
Вы не можете редактировать свои сообщения
Вы не можете удалять свои сообщения
Вы не можете голосовать в опросах
Вы не можете прикреплять файлы к сообщениям
Вы не можете скачивать файлы